当前位置: 首页 >> 港台电影 >> 小光[国语配音/中文字幕].Light.2021.1080p.KKTV.WEB-DL.AAC2.0.x264 1.08GB >> 正文

小光[国语配音/中文字幕].Light.2021.1080p.KKTV.WEB-DL.AAC2.0.x264 1.08GB

2021年09月12日 16:47:04     电影发布:来源于网络     电影分类:港台电影     评论(0)    

小光[国语配音/中文字幕].Light.2021.1080p.KKTV.WEB DL.AAC2.0.x264 1.08GB 短片 同性 剧情片 港台电影  第1张

◎译 名 小光 / 同志音乐爱情故事:小光

◎片 名 Light

◎年 代 2021

◎产 地 中国台湾

◎类 别 剧情 / 短片 / 同性

◎语 言 汉语普通话

◎上映日期 2021-08-13(中国台湾)

◎IMDb链接 https://www.imdb.com/title/tt15226074/

◎豆瓣评分 5.5/10 (749人评价)

◎豆瓣链接 https://movie.douban.com/subject/35559337/

◎片 长 44分钟

◎演 员 刘道玄 Tao-Hsuan Liu (id:1366487)

丁宁 Ning Ding (id:1319882)

钟岳轩 Jed Chung (id:1460843)

◎标 签 同性 / 短片 / 台湾 / 耽美 / 爱情 / 中国台湾 / 台剧 / 电影

◎简 介

童年被继父性侵的小光,从小一直缺爱。他的母亲--他唯一的血亲--被杀后,他再也无法逃避那个不算家的地方,被迫卖身。有一天,他遇到了一个新的客户,这个客户在街上殴打他。在下雨的夜里,他意外的遇见了老西装店里的硕哥,他的指尖瞬间点燃了小光心中的温暖。

硕哥是一名卧底警察,试图通过在一家老西装店工作来接触贩毒集团的老板。在一次任务中,小光单薄的身影吸引了他的注意。他把昏迷的小光带回了家,并为他提供了住所。但是,小光真的能面对他的心魔和创伤并与之共存吗?还是他最终会回到街头继续追求恩客的虚假爱情?

  1. ##### MediaInfo ######

  2. General

  3. Unique ID : 261539318167038542634375892363994768296 (0xC4C2A3F47B70241476E34751B018A3A8)

  4. Complete name : Light.2021.1080p.KKTV.WEB-DL.AAC2.0.x264-10001@BBQDDQ.COM.mkv

  5. Format : Matroska

  6. Format version : Version 4

  7. File size : 1.08 GiB

  8. Duration : 48 min 23 s

  9. Overall bit rate : 3 196 kb/s

  10. Encoded date : UTC 2021-09-11 02:37:15

  11. Writing application : mkvmerge v56.1.0 ('My Friend') 64-bit

  12. Writing library : libebml v1.4.2 + libmatroska v1.6.4


  13. Video

  14. ID : 1

  15. Format : AVC

  16. Format/Info : Advanced Video Codec

  17. Format profile : High@L4.1

  18. Format settings : CABAC / 5 Ref Frames

  19. Format settings, CABAC : Yes

  20. Format settings, Reference frames : 5 frames

  21. Codec ID : V_MPEG4/ISO/AVC

  22. Duration : 48 min 23 s

  23. Bit rate : 3 000 kb/s

  24. Width : 1 920 pixels

  25. Height : 1 080 pixels

  26. Display aspect ratio : 16:9

  27. Frame rate mode : Constant

  28. Frame rate : 24.000 FPS

  29. Color space : YUV

  30. Chroma subsampling : 4:2:0

  31. Bit depth : 8 bits

  32. Scan type : Progressive

  33. Bits/(Pixel*Frame) : 0.060

  34. Stream size : 1.01 GiB (94%)

  35. Writing library : x264 core 142

  36. Encoding settings : cabac=1 / ref=5 / deblock=1:0:0 / analyse=0x3:0x113 / me=umh / subme=9 / psy=1 / psy_rd=1.00:0.00 / mixed_ref=1 / me_range=32 / chroma_me=1 / trellis=1 / 8x8dct=1 / cqm=0 / deadzone=21,11 / fast_pskip=1 / chroma_qp_offset=-2 / threads=12 / lookahead_threads=1 / sliced_threads=0 / nr=0 / decimate=1 / interlaced=0 / NTMzNTQ= / bluray_compat=0 / stitchable=1 / constrained_intra=0 / bframes=3 / b_pyramid=2 / b_adapt=1 / b_bias=0 / direct=3 / weightb=1 / open_gop=0 / weightp=2 / keyint=24 / keyint_min=2 / scenecut=0 / intra_refresh=0 / rc_lookahead=36 / rc=abr / mbtree=1 / bitrate=3000 / ratetol=1.0 / qcomp=0.60 / qpmin=0 / qpmax=69 / qpstep=4 / vbv_maxrate=4500 / vbv_bufsize=6750 / nal_hrd=none / filler=0 / NTMzNTQ=LmsMAP37EqsCpk / ip_ratio=1.40 / aq=1:1.00

  37. Language : English

  38. Default : Yes

  39. Forced : No


  40. Audio

  41. ID : 2

  42. Format : AAC LC

  43. Format/Info : Advanced Audio Codec Low Complexity

  44. Codec ID : A_AAC-2

  45. Duration : 48 min 23 s

  46. Bit rate : 192 kb/s

  47. Channel(s) : 2 channels

  48. Channel layout : L R

  49. Sampling rate : 44.1 kHz

  50. Frame rate : 43.066 FPS (1024 SPF)

  51. Compression mode : Lossy

  52. Stream size : 66.5 MiB (6%)

  53. Language : Chinese

  54. Default : Yes

  55. Forced : No


  56. Text #1

  57. ID : 3

  58. Format : UTF-8

  59. Codec ID : S_TEXT/UTF8

  60. Codec ID/Info : UTF-8 Plain Text

  61. Duration : 40 min 46 s

  62. Bit rate : 20 b/s

  63. Count of elements : 330

  64. Stream size : 6.19 KiB (0%)

  65. Title : Chinese Simplified

  66. Language : Chinese

  67. Default : Yes

  68. Forced : No


  69. Text #2

  70. ID : 4

  71. Format : UTF-8

  72. Codec ID : S_TEXT/UTF8

  73. Codec ID/Info : UTF-8 Plain Text

  74. Duration : 40 min 46 s

  75. Bit rate : 20 b/s

  76. Count of elements : 330

  77. Stream size : 6.19 KiB (0%)

  78. Title : Chinese Traditional

  79. Language : Chinese

  80. Default : No

  81. Forced : No



文件下载


除非特别注明,本文『小光[国语配音/中文字幕].Light.2021.1080p.KKTV.WEB-DL.AAC2.0.x264 1.08GB』来源于互联网机器人自动抓取,非本站原创。 浮游电影网不对本文拥有版权,如有侵犯,请联系邮箱:fuyouu#yandex.com[#换成@]投诉。我们会在15个工作日内删除。 但烦请转载时请标明出处:“本文转载于『浮游电影网』,原文地址:https://www.fuyouu.com/14328.html

评论吧骚年!

发表你的见解   

昵称*

E-mail*(建议输入,以便收到博主回复的提示邮件)

验证码*

您可以使用eMule或eMule Mod(Windows)、aMule(Win、Linux、Mac)等软件下载eD2k链接。。
eMule收藏集(.emulecollection)文件是您选中的所有链接的列表文件。eMule可以直接下载它们。
按住SHIFT键选择可以选中多个选择框。
可用文件名和大小选择器来选择文件。
文件名选择器帮您根据文件名称或后缀来选择文件。不分大小写。
符号使用:
和:空格( )、+
不包含:-
或:|
转义:一对英文引号("");
匹配开头:^
匹配结尾:$
例如:
选中所有名称中包含有“eMule”或“0.49c”字眼,但不包含有“exe”字眼的:emule|0.49c -exe
选中所有名称的开头是“eMule”,结尾是“0.49c”的:^emule 0.49c$
选中所有名称中带有“eMule 0.49c”的(必须是“eMule 0.49c”,中间没有别的字符,不能是“eMule fake 0.49c”),需要转义:"emule 0.49c"
大小选择器帮您根据文件大小选择文件。