当前位置: 首页 >> 欧美电影 >> 星尘[中文字幕].Stardust.2020.1080p.BluRay.x265.10bit.DTS 6.33GB >> 正文

星尘[中文字幕].Stardust.2020.1080p.BluRay.x265.10bit.DTS 6.33GB

2021年09月12日 16:44:55     电影发布:来源于网络     电影分类:欧美电影     评论(0)    

星尘[中文字幕].Stardust.2020.1080p.BluRay.x265.10bit.DTS 6.33GB 剧情片 欧美电影  第1张

◎译 名 星尘 / 大卫宝儿:无尽星麈(港) / 摇滚变色龙:大卫鲍伊(台)

◎片 名 Stardust

◎年 代 2020

◎产 地 英国

◎类 别 剧情

◎语 言 英语

◎上映日期 2020-04-15(翠贝卡电影节) / 2020-11-25(美国)

◎IMDb链接 https://www.imdb.com/title/tt9694312/

◎豆瓣评分 3.8/10 (171人评价)

◎豆瓣链接 https://movie.douban.com/subject/30450250/

◎片 长 109分钟

◎导 演 加布里埃尔·兰格 Gabriel Range (id:1304946)

◎编 剧 加布里埃尔·兰格 Gabriel Range (id:1304946)

◎演 员 强尼·弗林 Johnny Flynn (id:1206041)

吉娜·马隆 Jena Malone (id:1040982)

马克·马龙 Marc Maron (id:1116943)

亚伦·普尔 Aaron Poole (id:1294714)

保利诺·努内斯 Paulino Nunes (id:1048399)

安东尼·弗拉纳根 Anthony Flanagan (id:1375930)

吉米·斯达 Jimmy Star (id:1273873)

瑞恩·布雷克利 Ryan Blakely (id:1359185)

杰瑞米·勒加特 Jeremy Legat (id:1183396)

◎标 签 传记 / 大卫鲍伊 / 音乐 / DavidBowie / 英国 / 剧情 / 2020 / Bowie

◎简 介

大卫·鲍伊的传记片真的来了。一部名为《星尘》(Stardust)的影片已在运作中,聚焦1971年,年轻的鲍伊第一次去往美国,激励了他创作出举世闻名的专辑和音乐形象“Ziggy Stardust”。定由歌手兼演员约翰尼·弗林(《野兽》)饰演鲍伊。

还有吉娜·马隆(《饥饿游戏》)饰演鲍伊的第一任妻子Angie,马克·马隆(《美女摔角联盟》)饰演他的唱片公司宣传。导演则宣布为Gabriel Range(《我是奴隶》),今年6月开拍。

  1. ##### MediaInfo ######

  2. General

  3. Unique ID : 306176279630087478016372645403101099259 (0xE6576811B2F6D9862EEF06A59B05F4FB)

  4. Complete name : Stardust.2020.1080p.BluRay.x265.10bit.DTS-10017@BBQDDQ.COM.mkv

  5. Format : Matroska

  6. Format version : Version 4

  7. File size : 6.33 GiB

  8. Duration : 1 h 48 min

  9. Overall bit rate : 8 331 kb/s

  10. Movie name : Stardust 2020

  11. Encoded date : UTC 2021-09-10 02:08:40

  12. Writing application : mkvmerge v61.0.0 ('So') 64-bit

  13. Writing library : libebml v1.4.2 + libmatroska v1.6.4

  14. Cover : Yes

  15. Attachments : cover.jpg


  16. Video

  17. ID : 1

  18. Format : HEVC

  19. Format/Info : High Efficiency Video Coding

  20. Format profile : Main 10@L5@Main

  21. Codec ID : V_MPEGH/ISO/HEVC

  22. Duration : 1 h 48 min

  23. Bit rate : 6 796 kb/s

  24. Width : 1 920 pixels

  25. Height : 1 040 pixels

  26. Display aspect ratio : 1.85:1

  27. Frame rate mode : Constant

  28. Frame rate : 24.000 FPS

  29. Color space : YUV

  30. Chroma subsampling : 4:2:0

  31. Bit depth : 10 bits

  32. Bits/(Pixel*Frame) : 0.142

  33. Stream size : 5.17 GiB (82%)

  34. Writing library : x265 3.5+2-g2b25c9ba0+45:[Windows][GCC 10.2.0][64 bit] Yuuki 10bit+8bit+12bit

  35. Encoding settings : rc=crf / crf=17.5000 / qcomp=0.60 / qpstep=4 / stats-write=0 / stats-read=0 / no-lossless / no-cu-lossless / aq-mode=3 / aq-strength=0.90 / cbqpoffs=0 / crqpoffs=0 / ipratio=1.40 / pbratio=1.30 / psy-rd=2.00 / psy-rdoq=0.00 / deblock=0:0 / ref=6 / limit-refs=1 / no-limit-modes / bframes=8 / b-adapt=2 / bframe-bias=0 / b-pyramid / b-intra / weightp / weightb / min-keyint=24 / max-keyint=240 / rc-lookahead=24 / gop-lookahead=0 / NTMzNTQ=uuDQuD2mJt9fsCf / scenecut=40 / hist-scenecut=0 / radl=0 / max-cu-size=64 / min-cu-size=8 / me=3 / subme=7 / merange=48 / rdoq-level=0 / rd=4 / rdpenalty=0 / dynamic-rd=0.00 / no-rd-refine / ----- / cutree / sao / no-rect / no-amp / no-open-gop / wpp / no-pmode / no-pme / no-psnr / no-ssim / nr-intra=0 / nr-inter=0 / no-constrained-intra / no-strong-intra-smoothing / max-tu-size=32 / tu-inter-depth=1 / tu-intra-depth=1 / limit-tu=0 / qg-size=32 / qpmax=69 / qpmin=0 / ----- / cpuid=533541111039 / frame-threads=4 / numa-pools=+ / log-level=2 / input-csp=1 / input-res=1920x1040 / interlace=0 / level-idc=0 / high-tier=1 / uhd-bd=0 / no-allow-non-conformance / repeat-headers / aud / no-hrd / info / hash=0 / no-temporal-layers / lookahead-slices=0 / no-splice / no-intra-refresh / no-ssim-rd / signhide / no-tskip / max-merge=3 / temporal-mvp / no-frame-dup / no-hme / no-analyze-src-pics / no-sao-non-deblock / selective-sao=4 / early-skip / rskip / no-fast-intra / no-tskip-fast / no-splitrd-skip / zone-count=0 / no-strict-cbr / no-rc-grain / no-const-vbv / sar=0 / overscan=0 / videoformat=5 / range=0 / colorprim=2 / transfer=2 / colormatrix=2 / chromaloc=0 / display-window=0 / cll=0,0 / min-luma=0 / max-luma=1023 / log2-max-poc-lsb=8 / vui-timing-info / vui-hrd-info / slices=1 / no-opt-qp-pps / no-opt-ref-list-length-pps / no-multi-pass-opt-rps / scenecut-bias=0.05 / hist-threshold=0.03 / no-opt-cu-delta-qp / no-aq-motion / no-hdr10 / no-hdr10-opt / no-dhdr10-opt / no-idr-recovery-sei / analysis-reuse-level=0 / analysis-save-reuse-level=0 / analysis-load-reuse-level=0 / scale-factor=0 / refine-intra=0 / refine-inter=0 / refine-mv=1 / refine-ctu-distortion=0 / no-limit-sao / ctu-info=0 / no-lowpass-dct / refine-analysis-type=0 / copy-pic=1 / max-ausize-factor=1.0 / no-dynamic-refine / no-single-sei / no-hevc-aq / no-svt / no-field / qp-adaptation-range=1.00 / scenecut-aware-qp=0conformance-window-offsets / right=0 / bottom=0 / NTMzNTQ= / decoder-max-rate=0 / no-vbv-live-multi-pass

  36. Default : Yes

  37. Forced : No


  38. Audio

  39. ID : 2

  40. ID in the original source medium : 4352 (0x1100)

  41. Format : DTS

  42. Format/Info : Digital Theater Systems

  43. Codec ID : A_DTS

  44. Duration : 1 h 48 min

  45. Bit rate mode : Constant

  46. Bit rate : 1 509 kb/s

  47. Channel(s) : 6 channels

  48. Channel layout : C L R Ls Rs LFE

  49. Sampling rate : 48.0 kHz

  50. Frame rate : 93.750 FPS (512 SPF)

  51. Bit depth : 24 bits

  52. Compression mode : Lossy

  53. Stream size : 1.15 GiB (18%)

  54. Language : English

  55. Default : Yes

  56. Forced : No

  57. Original source medium : Blu-ray


  58. Text #1

  59. ID : 3

  60. ID in the original source medium : 4608 (0x1200)

  61. Format : PGS

  62. Muxing mode : zlib

  63. Codec ID : S_HDMV/PGS

  64. Codec ID/Info : Picture based subtitle format used on BDs/HD-DVDs

  65. Duration : 1 h 45 min

  66. Bit rate : 25.8 kb/s

  67. Count of elements : 2624

  68. Stream size : 19.5 MiB (0%)

  69. Title : chs

  70. Language : Chinese

  71. Default : No

  72. Forced : No

  73. Original source medium : Blu-ray


  74. Text #2

  75. ID : 4

  76. ID in the original source medium : 4609 (0x1201)

  77. Format : PGS

  78. Muxing mode : zlib

  79. Codec ID : S_HDMV/PGS

  80. Codec ID/Info : Picture based subtitle format used on BDs/HD-DVDs

  81. Duration : 1 h 45 min

  82. Bit rate : 26.2 kb/s

  83. Count of elements : 2624

  84. Stream size : 19.8 MiB (0%)

  85. Title : cht

  86. Language : Chinese

  87. Default : No

  88. Forced : No

  89. Original source medium : Blu-ray


  90. Menu

  91. 00:00:00.000 : Chapter 01

  92. 00:09:00.500 : Chapter 02

  93. 00:16:11.375 : Chapter 03

  94. 00:25:08.416 : Chapter 04

  95. 00:33:09.750 : Chapter 05

  96. 00:41:51.291 : Chapter 06

  97. 00:52:18.375 : Chapter 07

  98. 00:59:27.958 : Chapter 08

  99. 01:08:08.625 : Chapter 09

  100. 01:17:33.916 : Chapter 10

  101. 01:23:44.625 : Chapter 11

  102. 01:33:17.625 : Chapter 12

  103. 01:41:54.791 : Chapter 13

  104. 01:45:33.208 : Chapter 14




文件下载


除非特别注明,本文『星尘[中文字幕].Stardust.2020.1080p.BluRay.x265.10bit.DTS 6.33GB』来源于互联网机器人自动抓取,非本站原创。 浮游电影网不对本文拥有版权,如有侵犯,请联系邮箱:fuyouu#yandex.com[#换成@]投诉。我们会在15个工作日内删除。 但烦请转载时请标明出处:“本文转载于『浮游电影网』,原文地址:https://www.fuyouu.com/14326.html

评论吧骚年!

发表你的见解   

昵称*

E-mail*(建议输入,以便收到博主回复的提示邮件)

验证码*

您可以使用eMule或eMule Mod(Windows)、aMule(Win、Linux、Mac)等软件下载eD2k链接。。
eMule收藏集(.emulecollection)文件是您选中的所有链接的列表文件。eMule可以直接下载它们。
按住SHIFT键选择可以选中多个选择框。
可用文件名和大小选择器来选择文件。
文件名选择器帮您根据文件名称或后缀来选择文件。不分大小写。
符号使用:
和:空格( )、+
不包含:-
或:|
转义:一对英文引号("");
匹配开头:^
匹配结尾:$
例如:
选中所有名称中包含有“eMule”或“0.49c”字眼,但不包含有“exe”字眼的:emule|0.49c -exe
选中所有名称的开头是“eMule”,结尾是“0.49c”的:^emule 0.49c$
选中所有名称中带有“eMule 0.49c”的(必须是“eMule 0.49c”,中间没有别的字符,不能是“eMule fake 0.49c”),需要转义:"emule 0.49c"
大小选择器帮您根据文件大小选择文件。