当前位置: 首页 >> 动画电影 >> 新大头儿子和小头爸爸之秘密计划[国语配音/中文字幕].New.Happy.Dad.and.Son.Secret.Plans.2014.WEB-DL.1080p.H264.AAC 2.81GB >> 正文

新大头儿子和小头爸爸之秘密计划[国语配音/中文字幕].New.Happy.Dad.and.Son.Secret.Plans.2014.WEB-DL.1080p.H264.AAC 2.81GB

2021年09月12日 15:55:41     电影发布:来源于网络     电影分类:动画电影     评论(0)    

新大头儿子和小头爸爸之秘密计划[国语配音/中文字幕].New.Happy.Dad.and.Son.Secret.Plans.2014.WEB DL.1080p.H264.AAC 2.81GB 儿童 家庭片 动画片 动画电影  第1张

◎译 名 新大头儿子和小头爸爸之秘密计划 / 新大头儿子和小头爸爸大电影 / New Happy Dad and Son: Secret Plans

◎年 代 2014

◎产 地 中国大陆

◎类 别 动画 / 家庭 / 儿童

◎语 言 汉语普通话

◎上映日期 2014-09-26(中国大陆)

◎IMDb链接 https://www.imdb.com/title/tt6449624/

◎豆瓣评分 4.9/10 (2326人评价)

◎豆瓣链接 https://movie.douban.com/subject/25966045/

◎片 长 80分钟

◎导 演 何澄 Cheng He (id:1342907)

◎编 剧 于洪洋 Hongyang Yu (id:1340106)

资小玉 Xiaoyu Zi (id:1342908)

孙晓松 Xiaosong Sun (id:1342906)

黄丹 Dan Huang (id:1319708)

◎演 员 刘纯燕 Chunyan Liu (id:1318433)

董浩 Hao Dong (id:1318435)

鞠萍 Ping Ju (id:1274251)

耿晨晨 Chenchen Geng (id:1342905)

陈苏 Su Chen (id:1342904)

霍小雷 Xiaolei Huo (id:1342903)

杨凝 Ning Yang (id:1390171)

刘校妤 Xiaoyu Liu (id:1325738)

吴凌云 Lingyun Wu (id:1425007)

宝木中阳 Ming Song (id:1334350)

傅国航 Guo-hang Fu (id:1406007)

张振益 Chen-Yi Chang (id:1280461)

黄海涛 Haitao Huang (id:1408605)

◎标 签 大头儿子小头爸爸 / 动画 / 童年 / 中国电影 / 国产 / 大陆 / !这也叫电影???? / 毁童年啊

◎简 介

繁华到都市一隅,居住着一户普通三口之家。大头儿子(刘纯燕 配音)、小头爸爸(董浩 配音)和围裙妈妈(鞠萍 配音)。大头儿子天真烂漫,调皮可爱,正上幼儿园的他时刻希望像宇航员那样一飞冲天,遨游宇宙。不过他的梦想却不被父母所理解,爸爸满嘴敷衍,让他去太空打怪兽。妈妈则奇怪他为什么想跑那么远,是不是不喜欢妈妈做的饭。大头儿子暗暗定下秘密计划,一定要成为出色的宇航员。当然爸爸妈妈也有各自的秘密。身为工程师的小头爸爸正和网友筹钱,准备为山区的孩子修建一座桥。围裙妈妈看似忙于家务,却也有着所谓的“彩虹计划”。

有爱的一家人,各自并且共同朝着心中的梦想而努力……

  1. ##### MediaInfo ######

  2. General

  3. Complete name : New Happy Dad and Son Secret Plans 2014 WEB-DL 1080p H264 AAC-10015@BBQDDQ.COM.mp4

  4. Format : MPEG-4

  5. Format profile : Base Media

  6. Codec ID : isom (isom/avc1)

  7. File size : 2.81 GiB

  8. Duration : 1 h 19 min

  9. Overall bit rate mode : Variable

  10. Overall bit rate : 5 052 kb/s

  11. Encoded date : UTC 2021-09-09 16:11:01

  12. Tagged date : UTC 2021-09-09 16:11:01


  13. Video

  14. ID : 1

  15. Format : AVC

  16. Format/Info : Advanced Video Codec

  17. Format profile : High@L4

  18. Format settings : CABAC / 4 Ref Frames

  19. Format settings, CABAC : Yes

  20. Format settings, Reference frames : 4 frames

  21. Codec ID : avc1

  22. Codec ID/Info : Advanced Video Coding

  23. Duration : 1 h 19 min

  24. Bit rate : 4 856 kb/s

  25. Maximum bit rate : 13.0 Mb/s

  26. Width : 1 920 pixels

  27. Height : 1 080 pixels

  28. Display aspect ratio : 16:9

  29. Frame rate mode : Constant

  30. Frame rate : 25.000 FPS

  31. Color space : YUV

  32. Chroma subsampling : 4:2:0

  33. Bit depth : 8 bits

  34. Scan type : Progressive

  35. Bits/(Pixel*Frame) : 0.094

  36. Stream size : 2.70 GiB (96%)

  37. Encoded date : UTC 2021-09-09 16:11:01

  38. Tagged date : UTC 2021-09-09 16:11:30

  39. Codec configuration box : avcC


  40. Audio

  41. ID : 2

  42. Format : AAC LC

  43. Format/Info : Advanced Audio Codec Low Complexity

  44. Codec ID : mp4a-40-2

  45. Duration : 1 h 19 min

  46. Bit rate mode : Variable

  47. Bit rate : 192 kb/s

  48. Maximum bit rate : 211 kb/s

  49. Channel(s) : 2 channels

  50. Channel layout : L R

  51. Sampling rate : 44.1 kHz

  52. Frame rate : 43.066 FPS (1024 SPF)

  53. Compression mode : Lossy

  54. Stream size : 110 MiB (4%)

  55. Encoded date : UTC 2021-09-09 16:11:26

  56. Tagged date : UTC 2021-09-09 16:11:30



文件下载


除非特别注明,本文『新大头儿子和小头爸爸之秘密计划[国语配音/中文字幕].New.Happy.Dad.and.Son.Secret.Plans.2014.WEB-DL.1080p.H264.AAC 2.81GB』来源于互联网机器人自动抓取,非本站原创。 浮游电影网不对本文拥有版权,如有侵犯,请联系邮箱:fuyouu#yandex.com[#换成@]投诉。我们会在15个工作日内删除。 但烦请转载时请标明出处:“本文转载于『浮游电影网』,原文地址:https://www.fuyouu.com/14316.html

评论吧骚年!

发表你的见解   

昵称*

E-mail*(建议输入,以便收到博主回复的提示邮件)

验证码*

您可以使用eMule或eMule Mod(Windows)、aMule(Win、Linux、Mac)等软件下载eD2k链接。。
eMule收藏集(.emulecollection)文件是您选中的所有链接的列表文件。eMule可以直接下载它们。
按住SHIFT键选择可以选中多个选择框。
可用文件名和大小选择器来选择文件。
文件名选择器帮您根据文件名称或后缀来选择文件。不分大小写。
符号使用:
和:空格( )、+
不包含:-
或:|
转义:一对英文引号("");
匹配开头:^
匹配结尾:$
例如:
选中所有名称中包含有“eMule”或“0.49c”字眼,但不包含有“exe”字眼的:emule|0.49c -exe
选中所有名称的开头是“eMule”,结尾是“0.49c”的:^emule 0.49c$
选中所有名称中带有“eMule 0.49c”的(必须是“eMule 0.49c”,中间没有别的字符,不能是“eMule fake 0.49c”),需要转义:"emule 0.49c"
大小选择器帮您根据文件大小选择文件。