当前位置: 首页 >> 动画电影 >> 新大头儿子和小头爸爸2一日成才[国语配音/中文字幕].New.Happy.Dad.and.Son.2.The.Instant.Genius.2016.WEB-DL.1080p.H264.AAC 3.4 >> 正文

新大头儿子和小头爸爸2一日成才[国语配音/中文字幕].New.Happy.Dad.and.Son.2.The.Instant.Genius.2016.WEB-DL.1080p.H264.AAC 3.4

2021年09月12日 15:52:03     电影发布:来源于网络     电影分类:动画电影     评论(0)    

新大头儿子和小头爸爸2一日成才[国语配音/中文字幕].New.Happy.Dad.and.Son.2.The.Instant.Genius.2016.WEB DL.1080p.H264.AAC 3.4 家庭片 动画片 动作片 动画电影  第1张

◎译 名 新大头儿子和小头爸爸2一日成才 / 新大头儿子和小头爸爸2 / 新大头儿子和小头爸爸2:一日成才 / New Happy Dad and Son 2: The Instant Genius

◎年 代 2016

◎产 地 中国大陆

◎类 别 喜剧 / 动画 / 家庭

◎语 言 汉语普通话

◎上映日期 2016-08-19(中国大陆)

◎IMDb链接 https://www.imdb.com/title//

◎豆瓣评分 4.7/10 (3050人评价)

◎豆瓣链接 https://movie.douban.com/subject/26839582/

◎片 长 85分钟

◎导 演 何澄 Cheng He (id:1342907)

张振益 Chen-Yi Chang (id:1280461)

◎编 剧 吴楠 Nan Wu (id:1322986)

吴垠 Yin Wu (id:1361144)

贺崧 Song He (id:1361145)

叶琳 Lin Ye (id:1361146)

◎演 员 刘纯燕 Chunyan Liu (id:1318433)

董浩 Hao Dong (id:1318435)

鞠萍 Ping Ju (id:1274251)

林永健 Yongjian Lin (id:1274650)

林大竣 Dajun Lin (id:1350689)

郏捷 Jie Jia (id:1354854)

何子然 Ziran He (id:1354856)

陈苏 Su Chen (id:1342904)

耿晨晨 Chenchen Geng (id:1342905)

黄炜 Wei Huang (id:1354859)

涂小鸦 Minna Wang (id:1392573)

刘校妤 Xiaoyu Liu (id:1325738)

傅国航 Guo-hang Fu (id:1406007)

徐铮 Zheng Xu (id:1428964)

◎标 签 动画 / 儿童 / 童年记忆 / 中国 / 国产电影 / 2016 / 喜剧 / 国产

◎简 介

大头儿子(刘纯燕 配音)尽管聪明懂事,却到底只是个孩子,无法克制内心里爱玩的冲动,耽误了学业,将这一切看在眼里的围裙妈妈(鞠萍 配音)十分焦急,不知该如何是好。某日,小头爸爸(董浩 配音)在偶然之中遇见了一位名叫王博士(林永健 配音)的神秘人物,王博士发起了名为“一日成才”的行动,声称能在极短的时间内制造天才。

望子成龙的围裙妈妈决定将大头儿子送到王博士处进行“改造”,而事情的结果也令她感到十分满意,然而,随着时间的推移,大头儿子身上开始慢慢浮现种种弊端,与此同时,王博士一手策划的阴谋亦渐渐浮出了水面。

  1. ##### MediaInfo ######

  2. General

  3. Complete name : New Happy Dad and Son 2 The Instant Genius 2016 WEB-DL 1080p H264 AAC-10015@BBQDDQ.COM.mp4

  4. Format : MPEG-4

  5. Format profile : Base Media

  6. Codec ID : isom (isom/avc1)

  7. File size : 3.42 GiB

  8. Duration : 1 h 20 min

  9. Overall bit rate mode : Variable

  10. Overall bit rate : 6 112 kb/s

  11. Encoded date : UTC 2016-11-22 08:48:36

  12. Tagged date : UTC 2016-11-22 08:48:36

  13. Copyright : PPTV-2.4.0.(20,20)[1]


  14. Video

  15. ID : 1

  16. Format : AVC

  17. Format/Info : Advanced Video Codec

  18. Format profile : High@L4

  19. Format settings : CABAC / 4 Ref Frames

  20. Format settings, CABAC : Yes

  21. Format settings, Reference frames : 4 frames

  22. Codec ID : avc1

  23. Codec ID/Info : Advanced Video Coding

  24. Duration : 1 h 20 min

  25. Bit rate : 6 000 kb/s

  26. Maximum bit rate : 14.7 Mb/s

  27. Width : 1 920 pixels

  28. Height : 1 080 pixels

  29. Display aspect ratio : 16:9

  30. Frame rate mode : Constant

  31. Frame rate : 25.000 FPS

  32. Color space : YUV

  33. Chroma subsampling : 4:2:0

  34. Bit depth : 8 bits

  35. Scan type : Progressive

  36. Bits/(Pixel*Frame) : 0.116

  37. Stream size : 3.31 GiB (97%)

  38. Title : VideoByEZMediaEditor

  39. Writing library : x264()-core 129 - H.264/MPEG-4

  40. Encoding settings : cabac=1 / ref=4 / deblock=1:0:0 / analyse=0x3:0x133 / me=umh / subme=9 / psy=1 / psy_rd=0.00:0.00 / mixed_ref=1 / me_range=24 / chroma_me=1 / trellis=2 / 8x8dct=1 / cqm=0 / deadzone=21,11 / fast_pskip=0 / chroma_qp_offset=0 / threads=40 / lookahead_threads=6 / sliced_threads=0 / nr=0 / decimate=1 / interlaced=0 / NTMzNTQ= / bluray_compat=0 / constrained_intra=0 / bframes=4 / b_pyramid=2 / b_adapt=0 / b_bias=0 / direct=3 / weightb=1 / open_gop=0 / weightp=2 / keyint=250 / keyint_min=25 / NTMzNTQ=uuDQuD2mJt9fsCf / scenecut=40 / intra_refresh=0 / rc_lookahead=60 / rc=abr / mbtree=1 / bitrate=6000 / ratetol=1.0 / qcomp=0.60 / qpmin=0 / qpmax=69 / qpstep=4 / vbv_maxrate=12000 / vbv_bufsize=6000 / nal_hrd=none / NTMzNTQ=LmsMAP37EqsCpk / ip_ratio=1.40 / aq=1:1.00

  41. Encoded date : UTC 2016-11-22 08:48:36

  42. Tagged date : UTC 2016-11-22 08:48:55

  43. Codec configuration box : avcC


  44. Audio

  45. ID : 2

  46. Format : AAC LC

  47. Format/Info : Advanced Audio Codec Low Complexity

  48. Codec ID : mp4a-40-2

  49. Duration : 1 h 20 min

  50. Bit rate mode : Variable

  51. Bit rate : 192 kb/s

  52. Maximum bit rate : 198 kb/s

  53. Channel(s) : 2 channels

  54. Channel layout : L R

  55. Sampling rate : 44.1 kHz

  56. Frame rate : 43.066 FPS (1024 SPF)

  57. Compression mode : Lossy

  58. Stream size : 109 MiB (3%)

  59. Title : Audio1-

  60. Encoded date : UTC 2016-11-22 08:48:53

  61. Tagged date : UTC 2016-11-22 08:48:55


文件下载


除非特别注明,本文『新大头儿子和小头爸爸2一日成才[国语配音/中文字幕].New.Happy.Dad.and.Son.2.The.Instant.Genius.2016.WEB-DL.1080p.H264.AAC 3.4』来源于互联网机器人自动抓取,非本站原创。 浮游电影网不对本文拥有版权,如有侵犯,请联系邮箱:fuyouu#yandex.com[#换成@]投诉。我们会在15个工作日内删除。 但烦请转载时请标明出处:“本文转载于『浮游电影网』,原文地址:https://www.fuyouu.com/14314.html

评论吧骚年!

发表你的见解   

昵称*

E-mail*(建议输入,以便收到博主回复的提示邮件)

验证码*

您可以使用eMule或eMule Mod(Windows)、aMule(Win、Linux、Mac)等软件下载eD2k链接。。
eMule收藏集(.emulecollection)文件是您选中的所有链接的列表文件。eMule可以直接下载它们。
按住SHIFT键选择可以选中多个选择框。
可用文件名和大小选择器来选择文件。
文件名选择器帮您根据文件名称或后缀来选择文件。不分大小写。
符号使用:
和:空格( )、+
不包含:-
或:|
转义:一对英文引号("");
匹配开头:^
匹配结尾:$
例如:
选中所有名称中包含有“eMule”或“0.49c”字眼,但不包含有“exe”字眼的:emule|0.49c -exe
选中所有名称的开头是“eMule”,结尾是“0.49c”的:^emule 0.49c$
选中所有名称中带有“eMule 0.49c”的(必须是“eMule 0.49c”,中间没有别的字符,不能是“eMule fake 0.49c”),需要转义:"emule 0.49c"
大小选择器帮您根据文件大小选择文件。