当前位置: 首页 >> 动画电影 >> 新大头儿子和小头爸爸4:完美爸爸[国语配音/中文字幕].New.Happy.Dad.and.Son.4.Perfect.Dad.2021.4K.WEB-DL.H265.AAC.5.1 9.54GB >> 正文

新大头儿子和小头爸爸4:完美爸爸[国语配音/中文字幕].New.Happy.Dad.and.Son.4.Perfect.Dad.2021.4K.WEB-DL.H265.AAC.5.1 9.54GB

2021年09月12日 15:50:54     电影发布:来源于网络     电影分类:动画电影     评论(0)    

新大头儿子和小头爸爸4:完美爸爸[国语配音/中文字幕].New.Happy.Dad.and.Son.4.Perfect.Dad.2021.4K.WEB DL.H265.AAC.5.1 9.54GB 动画片 奇幻片 冒险片 动画电影  第1张

◎译 名 新大头儿子和小头爸爸4:完美爸爸 / New Happy Dad And Son 4:Perfect Dad

◎年 代 2021

◎产 地 中国大陆

◎类 别 动画 / 奇幻 / 冒险

◎语 言 汉语普通话

◎上映日期 2021-07-09(中国大陆)

◎IMDb链接 https://www.imdb.com/title/tt14760652/

◎豆瓣评分 4.9/10 (1469人评价)

◎豆瓣链接 https://movie.douban.com/subject/34913583/

◎片 长 80分钟

◎导 演 何澄 Cheng He (id:1342907)

刘可欣 Kexin Liu (id:1320626)

◎演 员 董浩 Hao Dong (id:1318435)

鞠萍 Ping Ju (id:1274251)

陈怡 Yi Chen (id:1405528)

耿晨晨 Chenchen Geng (id:1342905)

陈苏 Su Chen (id:1342904)

王淏 Hao Wang (id:1354855)

郏捷 Jie Jia (id:1354854)

何子然 Ziran He (id:1354856)

黄炜 Wei Huang (id:1354859)

霍小雷 Xiaolei Huo (id:1342903)

王金建 Jinjian Wang (id:1442812)

刘洋 Yang Liu (id:1426634)

◎标 签 大头儿子和小头爸爸 / 动画 / 儿童 / 童年回忆 / 2021 / 中国大陆 / 国产 / 奇幻

◎简 介

当孩子的想象力遇上人工智能,会碰撞出什么神奇火花?一个夜晚,因一整天的不顺利而伤心沮丧的大头儿子,无意间触发了小头爸爸正在编写的智能程序,意外地被带入了一个神秘的虚拟世界,那里边竟然住着一个“完美爸爸”!俩人一起穿越云朵、创建城市、住进太空舱,一起畅游糖果海、神奇乐园,大头儿子的所有心愿都被“完美爸爸”一一满足。然而,“完美”的表面背后,实则暗藏危机……

◎获奖情况 (共1项)

第24届上海国际电影节 (2021)

金爵奖 最佳动画片(提名)

  1. ##### MediaInfo ######

  2. General

  3. Unique ID : 14872434542320927861192225034749566571 (0xB3053A2D077D53925A9736EA1E35E6B)

  4. Complete name : New Happy Dad and Son 4 Perfect Dad 2021 4K WEB-DL H265 AAC 5.1-10015@BBQDDQ.COM.mkv

  5. Format : Matroska

  6. Format version : Version 4

  7. File size : 9.53 GiB

  8. Duration : 1 h 25 min

  9. Overall bit rate : 15.9 Mb/s

  10. Encoded date : UTC 2021-09-09 11:05:51

  11. Writing application : mkvmerge v58.0.0 ('Supper's Ready') 64-bit

  12. Writing library : libebml v1.4.2 + libmatroska v1.6.4


  13. Video

  14. ID : 1

  15. Format : HEVC

  16. Format/Info : High Efficiency Video Coding

  17. Format profile : Main@L5@Main

  18. Codec ID : V_MPEGH/ISO/HEVC

  19. Duration : 1 h 25 min

  20. Bit rate : 15.6 Mb/s

  21. Width : 3 840 pixels

  22. Height : 2 160 pixels

  23. Display aspect ratio : 16:9

  24. Frame rate mode : Constant

  25. Frame rate : 25.000 FPS

  26. Color space : YUV

  27. Chroma subsampling : 4:2:0

  28. Bit depth : 8 bits

  29. Bits/(Pixel*Frame) : 0.075

  30. Stream size : 9.34 GiB (98%)

  31. Default : Yes

  32. Forced : No


  33. Audio #1

  34. ID : 2

  35. Format : AAC LC SBR

  36. Format/Info : Advanced Audio Codec Low Complexity with Spectral Band Replication

  37. Commercial name : HE-AAC

  38. Format settings : NBC

  39. Codec ID : A_AAC-5

  40. Duration : 1 h 25 min

  41. Bit rate : 132 kb/s

  42. Channel(s) : 6 channels

  43. Channel layout : C L R Ls Rs LFE

  44. Sampling rate : 48.0 kHz

  45. Frame rate : 23.438 FPS (2048 SPF)

  46. Compression mode : Lossy

  47. Stream size : 80.3 MiB (1%)

  48. Language : Chinese

  49. Default : Yes

  50. Forced : No


  51. Audio #2

  52. ID : 3

  53. Format : AAC LC

  54. Format/Info : Advanced Audio Codec Low Complexity

  55. Codec ID : A_AAC-2

  56. Duration : 1 h 25 min

  57. Bit rate : 192 kb/s

  58. Channel(s) : 2 channels

  59. Channel layout : L R

  60. Sampling rate : 44.1 kHz

  61. Frame rate : 43.066 FPS (1024 SPF)

  62. Compression mode : Lossy

  63. Stream size : 116 MiB (1%)

  64. Language : Chinese

  65. Default : No

  66. Forced : No


文件下载


除非特别注明,本文『新大头儿子和小头爸爸4:完美爸爸[国语配音/中文字幕].New.Happy.Dad.and.Son.4.Perfect.Dad.2021.4K.WEB-DL.H265.AAC.5.1 9.54GB』来源于互联网机器人自动抓取,非本站原创。 浮游电影网不对本文拥有版权,如有侵犯,请联系邮箱:fuyouu#yandex.com[#换成@]投诉。我们会在15个工作日内删除。 但烦请转载时请标明出处:“本文转载于『浮游电影网』,原文地址:https://www.fuyouu.com/14313.html

评论吧骚年!

发表你的见解   

昵称*

E-mail*(建议输入,以便收到博主回复的提示邮件)

验证码*

您可以使用eMule或eMule Mod(Windows)、aMule(Win、Linux、Mac)等软件下载eD2k链接。。
eMule收藏集(.emulecollection)文件是您选中的所有链接的列表文件。eMule可以直接下载它们。
按住SHIFT键选择可以选中多个选择框。
可用文件名和大小选择器来选择文件。
文件名选择器帮您根据文件名称或后缀来选择文件。不分大小写。
符号使用:
和:空格( )、+
不包含:-
或:|
转义:一对英文引号("");
匹配开头:^
匹配结尾:$
例如:
选中所有名称中包含有“eMule”或“0.49c”字眼,但不包含有“exe”字眼的:emule|0.49c -exe
选中所有名称的开头是“eMule”,结尾是“0.49c”的:^emule 0.49c$
选中所有名称中带有“eMule 0.49c”的(必须是“eMule 0.49c”,中间没有别的字符,不能是“eMule fake 0.49c”),需要转义:"emule 0.49c"
大小选择器帮您根据文件大小选择文件。