当前位置: 首页 >> 欧美电影 >> 傻瓜入狱记[中文字幕].Take.the.Money.and.Run.1969.1080p.BluRay.x265.10bit.FLAC.MNHD 4.80GB >> 正文

傻瓜入狱记[中文字幕].Take.the.Money.and.Run.1969.1080p.BluRay.x265.10bit.FLAC.MNHD 4.80GB

2021年09月12日 15:49:12     电影发布:来源于网络     电影分类:欧美电影     评论(0)    

傻瓜入狱记[中文字幕].Take.the.Money.and.Run.1969.1080p.BluRay.x265.10bit.FLAC.MNHD 4.80GB 犯罪片 喜剧片 欧美电影  第1张

◎译 名 傻瓜入狱记 / 傻瓜抢银行 / 鬼马大盗 / 傻瓜抢银行

◎片 名 Take the Money and Run

◎年 代 1969

◎产 地 美国

◎类 别 喜剧 / 犯罪

◎语 言 英语

◎上映日期 1969-08-18

◎IMDb链接 https://www.imdb.com/title/tt0065063/

◎豆瓣评分 7.8/10 (5002人评价)

◎豆瓣链接 https://movie.douban.com/subject/1298191/

◎片 长 85 分钟

◎导 演 伍迪·艾伦 Woody Allen (id:1054430)

◎编 剧 米基·罗斯 Mickey Rose (id:1045786)

伍迪·艾伦 Woody Allen (id:1054430)

◎演 员 伍迪·艾伦 Woody Allen (id:1054430)

珍妮特·玛戈林 Janet Margolin (id:1022930)

马塞尔·希莱尔 Marcel Hillaire (id:1098992)

马克·戈登 Mark Gordon (id:1285191)

Ethel Sokolow Ethel Sokolow (id:1155964)

Henry Leff Henry Leff (id:1107094)

Jacquelyn Hyde Jacquelyn Hyde (id:1106727)

Michael L. Davis Michael L. Davis (id:1091704)

罗伊·恩格尔 Roy Engel (id:1083495)

Jan Merlin Jan Merlin (id:1002886)

Howard Storm Howard Storm (id:1037710)

丹·弗雷泽 Dan Frazer (id:1041578)

米基·罗斯 Mickey Rose (id:1045786)

詹姆斯·安德森 James Anderson (id:1056894)

Thomas Bellin Thomas Bellin (id:1063446)

杰克逊·贝克 Jackson Beck (id:1064003)

Grace Bauer Grace Bauer (id:1065952)

朗尼·查普曼 Lonny Chapman (id:1078503)

露易丝·拉塞尔 Louise Lasser (id:1000365)

Jack Grossberg Jack Grossberg (id:1021322)

西德尼·格雷季尔 Sidney Glazier (id:1018822)

查尔斯·H·约菲 Charles H. Joffe (id:1010164)

杰克·罗林斯 Jack Rollins (id:1140848)

Edgar J. Scherick Edgar J. Scherick (id:1030015)

马文·哈姆利奇 Marvin Hamlisch (id:1019195)

Lester Shorr Lester Shorr (id:1003702)

Marvin Paige Marvin Paige (id:1293812)

Fred Harpman Fred Harpman (id:1286078)

马文·马奇 Marvin March (id:1290943)

沃尔特·希尔 Walter Hill (id:1014030)

◎标 签 伍迪·艾伦 / WoodyAllen / 美国 / 喜剧 / 黑色幽默 / 1969 / 美国电影 / 1960s

◎简 介

弗吉尔(伍迪·艾伦 Woody Allen 饰)是一个智商不太够用的笨小孩,可是,来自于贫民窟的出生让他的血液中流淌着犯罪的基因。仿佛生来就是为了犯罪,弗吉尔从来就没有考虑过别的出路。就这样,在一次失败的运钞车抢劫之后,弗吉尔锒铛入狱。利用一次成为药物实验对象的机会,弗吉尔获得了假释,可出狱后的弗吉尔死性不改,依旧过着充满了罪恶的生活。一次蹩脚的抢劫让弗吉尔结识了洗衣女工露易丝(珍妮特·玛戈林 Janet Margolin 饰),两人一见钟情。为了成为可以被依靠的男人,弗吉尔下定决心,要在抢银行这份十分有前途的工作上再接再厉。在着那让人着急的智商的帮助下,弗吉尔再度入狱……

本片为伍迪·艾伦真正意义上的处女作,用伪纪录片的方式讲述了一个令人啼笑皆非的荒诞故事,也为之后的《西力传》奠定了风格。

  1. ##### MediaInfo ######

  2. General

  3. Unique ID : 244472111819224190005618816830664963015 (0xB7EB9DB6E5662475EBED3607548573C7)

  4. Complete name : Take.the.Money.and.Run.1969.1080p.BluRay.x265.10bit.FLAC.MNHD-10018@BBQDDQ.COM.mkv

  5. Format : Matroska

  6. Format version : Version 4

  7. File size : 4.80 GiB

  8. Duration : 1 h 25 min

  9. Overall bit rate mode : Variable

  10. Overall bit rate : 8 049 kb/s

  11. Movie name : Take.the.Money.and.Run.1969.1080p.BluRay.x265.10bit.FLAC.MNHD-10018@BBQDDQ.COM

  12. Writing application : Lavf58.29.100

  13. Writing library : Lavf58.29.100

  14. ErrorDetectionType : Per level 1


  15. Video

  16. ID : 1

  17. Format : HEVC

  18. Format/Info : High Efficiency Video Coding

  19. Format profile : Main 10@L5.1@High

  20. Codec ID : V_MPEGH/ISO/HEVC

  21. Duration : 1 h 25 min

  22. Bit rate : 7 622 kb/s

  23. Width : 1 912 pixels

  24. Height : 1 040 pixels

  25. Display aspect ratio : 1.85:1

  26. Frame rate mode : Constant

  27. Frame rate : 23.976 (24000/1001/53354) FPS

  28. Color space : YUV

  29. Chroma subsampling : 4:2:0

  30. Bit depth : 10 bits

  31. Bits/(Pixel*Frame) : 0.160

  32. Stream size : 4.55 GiB (95%)

  33. Writing library : x265 3.5+1-f0c1022b6:[Linux][GCC 9.3.0][64 bit] 10bit

  34. Encoding settings : cpuid=533541111039 / frame-threads=3 / numa-pools=11 / wpp / pmode / no-pme / no-psnr / no-ssim / log-level=2 / input-csp=1 / input-res=1912x1040 / interlace=0 / total-frames=122897 / level-idc=0 / high-tier=1 / uhd-bd=0 / ref=4 / no-allow-non-conformance / no-repeat-headers / annexb / no-aud / no-hrd / info / hash=0 / no-temporal-layers / no-open-gop / min-keyint=1 / keyint=250 / gop-lookahead=0 / bframes=6 / b-adapt=2 / b-pyramid / bframe-bias=0 / rc-lookahead=80 / lookahead-slices=0 / NTMzNTQ=uuDQuD2mJt9fsCf / scenecut=40 / hist-scenecut=0 / radl=0 / no-splice / no-intra-refresh / ctu=32 / min-cu-size=8 / no-rect / no-amp / max-tu-size=32 / tu-inter-depth=4 / tu-intra-depth=4 / limit-tu=0 / rdoq-level=2 / dynamic-rd=0.00 / no-ssim-rd / signhide / no-tskip / nr-intra=0 / nr-inter=0 / no-constrained-intra / strong-intra-smoothing / max-merge=5 / limit-refs=0 / no-limit-modes / me=3 / subme=7 / merange=57 / temporal-mvp / no-frame-dup / no-hme / weightp / weightb / no-analyze-src-pics / deblock=-3:-3 / no-sao / no-sao-non-deblock / rd=4 / selective-sao=0 / no-early-skip / no-rskip / no-fast-intra / no-tskip-fast / no-cu-lossless / b-intra / no-splitrd-skip / rdpenalty=0 / psy-rd=1.50 / psy-rdoq=1.00 / no-rd-refine / no-lossless / cbqpoffs=-2 / crqpoffs=-2 / rc=crf / crf=23.5 / qcomp=0.65 / qpstep=4 / stats-write=0 / stats-read=0 / vbv-maxrate=160000 / vbv-bufsize=160000 / vbv-init=0.9 / min-vbv-fullness=50.0 / max-vbv-fullness=80.0 / crf-max=0.0 / crf-min=0.0 / ipratio=1.30 / pbratio=1.20 / aq-mode=1 / aq-strength=1.00 / no-cutree / zone-count=0 / no-strict-cbr / qg-size=8 / no-rc-grain / qpmax=69 / qpmin=0 / no-const-vbv / sar=0 / overscan=0 / videoformat=5 / range=0 / colorprim=1 / transfer=1 / colormatrix=1 / chromaloc=0 / display-window=0 / cll=0,0 / min-luma=0 / max-luma=1023 / log2-max-poc-lsb=8 / vui-timing-info / vui-hrd-info / slices=1 / no-opt-qp-pps / no-opt-ref-list-length-pps / no-multi-pass-opt-rps / scenecut-bias=0.05 / hist-threshold=0.03 / no-opt-cu-delta-qp / no-aq-motion / no-hdr10 / no-hdr10-opt / no-dhdr10-opt / no-idr-recovery-sei / analysis-reuse-level=0 / analysis-save-reuse-level=0 / analysis-load-reuse-level=0 / scale-factor=0 / refine-intra=0 / refine-inter=0 / refine-mv=1 / refine-ctu-distortion=0 / no-limit-sao / ctu-info=0 / no-lowpass-dct / refine-analysis-type=0 / copy-pic=1 / max-ausize-factor=1.0 / no-dynamic-refine / no-single-sei / no-hevc-aq / no-svt / no-field / qp-adaptation-range=1.00 / scenecut-aware-qp=0conformance-window-offsets / right=0 / bottom=0 / NTMzNTQ= / decoder-max-rate=0 / no-vbv-live-multi-pass

  35. Default : Yes

  36. Forced : No

  37. Color range : Limited

  38. Color primaries : BT.709

  39. Transfer characteristics : BT.709

  40. Matrix coefficients : BT.709


  41. Audio

  42. ID : 2

  43. Format : FLAC

  44. Format/Info : Free Lossless Audio Codec

  45. Codec ID : A_FLAC

  46. Duration : 1 h 25 min

  47. Bit rate mode : Variable

  48. Bit rate : 425 kb/s

  49. Channel(s) : 2 channels

  50. Channel layout : L R

  51. Sampling rate : 48.0 kHz

  52. Frame rate : 11.694 FPS (4105 SPF)

  53. Bit depth : 16 bits

  54. Compression mode : Lossless

  55. Delay relative to video : 10 s 991 ms

  56. Stream size : 259 MiB (5%)

  57. Language : English

  58. Default : Yes

  59. Forced : No


  60. Text #1

  61. ID : 3

  62. Format : ASS

  63. Codec ID : S_TEXT/ASS

  64. Codec ID/Info : Advanced Sub Station Alpha

  65. Duration : 1 h 25 min

  66. Bit rate : 169 b/s

  67. Count of elements : 989

  68. Compression mode : Lossless

  69. Stream size : 105 KiB (0%)

  70. Title : ChsEng

  71. Language : Chinese

  72. Default : Yes

  73. Forced : No


  74. Text #2

  75. ID : 4

  76. Format : ASS

  77. Codec ID : S_TEXT/ASS

  78. Codec ID/Info : Advanced Sub Station Alpha

  79. Duration : 1 h 25 min

  80. Bit rate : 169 b/s

  81. Count of elements : 989

  82. Compression mode : Lossless

  83. Stream size : 105 KiB (0%)

  84. Title : ChtEng

  85. Language : Chinese

  86. Default : No

  87. Forced : No


  88. Text #3

  89. ID : 5

  90. Format : ASS

  91. Codec ID : S_TEXT/ASS

  92. Codec ID/Info : Advanced Sub Station Alpha

  93. Duration : 1 h 25 min

  94. Bit rate : 91 b/s

  95. Count of elements : 989

  96. Compression mode : Lossless

  97. Stream size : 56.9 KiB (0%)

  98. Title : Chs

  99. Language : Chinese

  100. Default : No

  101. Forced : No


  102. Menu

  103. 00:00:00.000 : :Chapter 01

  104. 00:09:48.713 : :Chapter 02

  105. 00:20:02.243 : :Chapter 03

  106. 00:28:49.603 : :Chapter 04

  107. 00:42:08.818 : :Chapter 05

  108. 00:52:44.912 : :Chapter 06

  109. 01:03:41.026 : :Chapter 07

  110. 01:15:22.810 : :Chapter 08


文件下载


除非特别注明,本文『傻瓜入狱记[中文字幕].Take.the.Money.and.Run.1969.1080p.BluRay.x265.10bit.FLAC.MNHD 4.80GB』来源于互联网机器人自动抓取,非本站原创。 浮游电影网不对本文拥有版权,如有侵犯,请联系邮箱:fuyouu#yandex.com[#换成@]投诉。我们会在15个工作日内删除。 但烦请转载时请标明出处:“本文转载于『浮游电影网』,原文地址:https://www.fuyouu.com/14312.html

评论吧骚年!

发表你的见解   

昵称*

E-mail*(建议输入,以便收到博主回复的提示邮件)

验证码*

您可以使用eMule或eMule Mod(Windows)、aMule(Win、Linux、Mac)等软件下载eD2k链接。。
eMule收藏集(.emulecollection)文件是您选中的所有链接的列表文件。eMule可以直接下载它们。
按住SHIFT键选择可以选中多个选择框。
可用文件名和大小选择器来选择文件。
文件名选择器帮您根据文件名称或后缀来选择文件。不分大小写。
符号使用:
和:空格( )、+
不包含:-
或:|
转义:一对英文引号("");
匹配开头:^
匹配结尾:$
例如:
选中所有名称中包含有“eMule”或“0.49c”字眼,但不包含有“exe”字眼的:emule|0.49c -exe
选中所有名称的开头是“eMule”,结尾是“0.49c”的:^emule 0.49c$
选中所有名称中带有“eMule 0.49c”的(必须是“eMule 0.49c”,中间没有别的字符,不能是“eMule fake 0.49c”),需要转义:"emule 0.49c"
大小选择器帮您根据文件大小选择文件。