当前位置: 首页 >> 欧美电影 >> 致命感应[中文字幕].Malignant.2021.2160p.WEB-DL.H265.AAC 12.49GB >> 正文

致命感应[中文字幕].Malignant.2021.2160p.WEB-DL.H265.AAC 12.49GB

2021年09月12日 15:44:25     电影发布:来源于网络     电影分类:欧美电影     评论(0)    

致命感应[中文字幕].Malignant.2021.2160p.WEB DL.H265.AAC 12.49GB 恐怖片 惊悚片 欧美电影  第1张

◎译 名 致命感应 / 恶煞(港) / 疾厄(台) / 肿瘤侠 / 恶毒 / 恶性 / 肿瘤 / Malignant Man

◎片 名 Malignant

◎年 代 2021

◎产 地 美国

◎类 别 惊悚 / 恐怖

◎语 言 英语

◎上映日期 2021-09-01(法国) / 2021-09-10(美国)

◎IMDb链接 https://www.imdb.com/title/tt3811906/

◎豆瓣链接 https://movie.douban.com/subject/25909236/

◎片 长 111分钟

◎导 演 温子仁 James Wan (id:1032122)

丽贝卡·托马斯 Rebecca Thomas (id:1336471)

◎编 剧 阿克拉·库珀 Akela Cooper (id:1408379)

温子仁 James Wan (id:1032122)

英格丽·比苏 Ingrid Bisu (id:1366027)

扎克·奥尔维奇 Zak Olkewicz (id:1409124)

J·T·佩蒂 J.T. Petty (id:1294410)

◎演 员 安娜贝拉·沃丽丝 Annabelle Wallis (id:1315815)

麦肯娜·格瑞丝 Mckenna Grace (id:1340538)

杰克·阿贝尔 Jake Abel (id:1040561)

麦蒂·哈森 Maddie Hasson (id:1319257)

杰奎琳·麦根斯 Jacqueline McKenzie (id:1040666)

吴宇卫 George Young (id:1357025)

米歇尔·沃特 Michole White (id:1162209)

乔恩·李·布罗迪 Jon Lee Brody (id:1230005)

保拉·马绍尔 Paula Marshall (id:1055000)

帕特里克·考克斯 Patrick Cox (id:1406295)

英格丽·比苏 Ingrid Bisu (id:1366027)

珍·路易莎·凯利 Jean Louisa Kelly (id:1113403)

基诺·蒙特斯诺斯 Gino Montesinos (id:1115895)

蕾妮·戴蒙德 Renee Diamond (id:1200714)

温子仁 James Wan (id:1032122)

约瑟夫·比沙拉 Joseph Bishara (id:1379186)

迈克尔·布格斯 Michael Burgess (id:1427916)

◎标 签 温子仁 / 恐怖 / 惊悚 / 美国 / 悬疑 / 2021 / 欧美 / 科幻

◎简 介

麦迪森(安娜贝拉·沃丽丝 Annabelle Wallis 饰)在梦中不断看到恐怖谋杀案现场的幻象,而这些幻象实际上是真实发生过的凶案,她决定挖掘真相和自己的过去,却发现这一切与一位名叫“盖博瑞”的魔鬼有关。

  1. ##### MediaInfo ######

  2. General

  3. Complete name : 致命感应.Malignant.2021.2160p.WEB-DL.H265.AAC-10003@BBQDDQ.COM.mp4

  4. Format : MPEG-4

  5. Format profile : Base Media

  6. Codec ID : isom (isom/iso2/mp41)

  7. File size : 12.5 GiB

  8. Duration : 1 h 47 min

  9. Overall bit rate mode : Variable

  10. Overall bit rate : 16.6 Mb/s

  11. Writing application : Lavf58.32.104


  12. Video

  13. ID : 1

  14. Format : HEVC

  15. Format/Info : High Efficiency Video Coding

  16. Format profile : Main@L5@Main

  17. Codec ID : hev1

  18. Codec ID/Info : High Efficiency Video Coding

  19. Duration : 1 h 47 min

  20. Bit rate : 16.4 Mb/s

  21. Width : 3 840 pixels

  22. Height : 1 616 pixels

  23. Display aspect ratio : 2.40:1

  24. Frame rate mode : Constant

  25. Frame rate : 24.000 FPS

  26. Color space : YUV

  27. Chroma subsampling : 4:2:0

  28. Bit depth : 8 bits

  29. Bits/(Pixel*Frame) : 0.110

  30. Stream size : 12.3 GiB (99%)

  31. Codec configuration box : hvcC


  32. Audio

  33. ID : 2

  34. Format : AAC LC

  35. Format/Info : Advanced Audio Codec Low Complexity

  36. Codec ID : mp4a-40-2

  37. Duration : 1 h 47 min

  38. Bit rate mode : Variable

  39. Bit rate : 192 kb/s

  40. Maximum bit rate : 194 kb/s

  41. Channel(s) : 2 channels

  42. Channel layout : L R

  43. Sampling rate : 44.1 kHz

  44. Frame rate : 43.066 FPS (1024 SPF)

  45. Compression mode : Lossy

  46. Stream size : 146 MiB (1%)

  47. Default : Yes

  48. Alternate group : 1



文件下载


除非特别注明,本文『致命感应[中文字幕].Malignant.2021.2160p.WEB-DL.H265.AAC 12.49GB』来源于互联网机器人自动抓取,非本站原创。 浮游电影网不对本文拥有版权,如有侵犯,请联系邮箱:fuyouu#yandex.com[#换成@]投诉。我们会在15个工作日内删除。 但烦请转载时请标明出处:“本文转载于『浮游电影网』,原文地址:https://www.fuyouu.com/14311.html

评论吧骚年!

发表你的见解   

昵称*

E-mail*(建议输入,以便收到博主回复的提示邮件)

验证码*

您可以使用eMule或eMule Mod(Windows)、aMule(Win、Linux、Mac)等软件下载eD2k链接。。
eMule收藏集(.emulecollection)文件是您选中的所有链接的列表文件。eMule可以直接下载它们。
按住SHIFT键选择可以选中多个选择框。
可用文件名和大小选择器来选择文件。
文件名选择器帮您根据文件名称或后缀来选择文件。不分大小写。
符号使用:
和:空格( )、+
不包含:-
或:|
转义:一对英文引号("");
匹配开头:^
匹配结尾:$
例如:
选中所有名称中包含有“eMule”或“0.49c”字眼,但不包含有“exe”字眼的:emule|0.49c -exe
选中所有名称的开头是“eMule”,结尾是“0.49c”的:^emule 0.49c$
选中所有名称中带有“eMule 0.49c”的(必须是“eMule 0.49c”,中间没有别的字符,不能是“eMule fake 0.49c”),需要转义:"emule 0.49c"
大小选择器帮您根据文件大小选择文件。