当前位置: 首页 >> 动画电影 >> 白蛇2:青蛇劫起[国语配音/中文字幕].White.Snake.2.Green.Snake.2021.WEB-DL.4K.H265.Dolby.Digital.Plus.with.Dolby.Atmo >> 正文

白蛇2:青蛇劫起[国语配音/中文字幕].White.Snake.2.Green.Snake.2021.WEB-DL.4K.H265.Dolby.Digital.Plus.with.Dolby.Atmo

2021年09月12日 14:00:40     电影发布:来源于网络     电影分类:动画电影     评论(0)    

白蛇2:青蛇劫起[国语配音/中文字幕].White.Snake.2.Green.Snake.2021.WEB DL.4K.H265.Dolby.Digital.Plus.with.Dolby.Atmo 动画片 奇幻片 冒险片 动画电影  第1张

◎译 名 白蛇2:青蛇劫起 / 白蛇2 / Green Snake

◎年 代 2021

◎产 地 中国大陆

◎类 别 动画 / 奇幻 / 冒险

◎语 言 汉语普通话

◎上映日期 2021-07-23(中国大陆)

◎IMDb链接 https://www.imdb.com/title/tt15000314/

◎豆瓣评分 7.2/10 (198605人评价)

◎豆瓣链接 https://movie.douban.com/subject/30435124/

◎片 长 131分钟

◎导 演 黄家康 Amp Wong (id:1401171)

◎编 剧 大毛 Damao (id:1401317)

◎演 员 唐小喜 Xiaoxi Tang (id:1340810)

歪歪 Fuzheng Zhang (id:1433076)

魏超 Chao Wei (id:1374285)

赵铭洲 Mingzhou Zhao (id:1406075)

郑小璞 Xiaopu Zheng (id:1379735)

马程 Cheng Ma (id:1404930)

宋旭晨 (id:1458571)

邱秋 Qiu Qiu (id:1384857)

张凯 Kai Zhang (id:1320631)

徐佳琦 Jiaqi Xu (id:1366856)

关帅 Shuai Guan (id:1430950)

张碧玉 Biyu Zhang (id:1385052)

张喆 Zhe Zhang (id:1389748)

杨天翔 Tianxiang Yang (id:1341265)

宝木中阳 Ming Song (id:1334350)

林强 Qiang Lin (id:1340112)

崔迪 Di Cui (id:1401316)

郭好为 Haowei Guo (id:1339864)

周深 Shen Zhou (id:1366895)

刘惜君 Sara Liu (id:1329880)

◎标 签 国漫 / 追光动画 / 动画 / 女性 / 国产 / 动漫 / 2021 / 中国大陆

◎简 介

南宋末年,小白为救许仙水漫金山,终被法海压在雷峰塔下。小青则意外被法海打入诡异的修罗城幻境。几次危机中小青被神秘蒙面少年所救,小青带着出去救出小白的执念历经劫难与成长,同蒙面少年一起寻找离开的办法。

  1. ##### MediaInfo ######

  2. General

  3. Unique ID : 327656659713206641942502825834634804662 (0xF6806092EDC9371A1606C4DF8FE3FDB6)

  4. Complete name : White Snake 2 Green Snake 2021 WEB-DL 4K H265 Dolby Digital Plus with Dolby Atmos-10015@BBQDDQ.COM.mkv

  5. Format : Matroska

  6. Format version : Version 4

  7. File size : 6.07 GiB

  8. Duration : 2 h 12 min

  9. Overall bit rate : 6 577 kb/s

  10. Encoded date : UTC 2021-09-10 02:11:19

  11. Writing application : mkvmerge v58.0.0 ('Supper's Ready') 64-bit

  12. Writing library : libebml v1.4.2 + libmatroska v1.6.4


  13. Video

  14. ID : 1

  15. Format : HEVC

  16. Format/Info : High Efficiency Video Coding

  17. Format profile : Main@L5@Main

  18. Codec ID : V_MPEGH/ISO/HEVC

  19. Duration : 2 h 12 min

  20. Bit rate : 5 675 kb/s

  21. Width : 3 840 pixels

  22. Height : 1 626 pixels

  23. Display aspect ratio : 2.35:1

  24. Frame rate mode : Constant

  25. Frame rate : 24.000 FPS

  26. Color space : YUV

  27. Chroma subsampling : 4:2:0

  28. Bit depth : 8 bits

  29. Bits/(Pixel*Frame) : 0.038

  30. Stream size : 5.23 GiB (86%)

  31. Writing library : HW265_Code

  32. Default : Yes

  33. Forced : No

  34. Color range : Limited

  35. Color primaries : BT.709

  36. Transfer characteristics : BT.709

  37. Matrix coefficients : BT.709


  38. Audio #1

  39. ID : 2

  40. Format : E-AC-3 JOC

  41. Format/Info : Enhanced AC-3 with Joint Object Coding

  42. Commercial name : Dolby Digital Plus with Dolby Atmos

  43. Codec ID : A_EAC3

  44. Duration : 2 h 12 min

  45. Bit rate mode : Constant

  46. Bit rate : 768 kb/s

  47. Channel(s) : 6 channels

  48. Channel layout : L R C LFE Ls Rs

  49. Sampling rate : 48.0 kHz

  50. Frame rate : 31.250 FPS (1536 SPF)

  51. Compression mode : Lossy

  52. Stream size : 725 MiB (12%)

  53. Language : Chinese

  54. Service kind : Complete Main

  55. Default : Yes

  56. Forced : No

  57. Complexity index : 16

  58. Number of dynamic objects : 15

  59. Bed channel count : 1 channel

  60. Bed channel configuration : LFE


  61. Audio #2

  62. ID : 3

  63. Format : AAC LC SBR

  64. Format/Info : Advanced Audio Codec Low Complexity with Spectral Band Replication

  65. Commercial name : HE-AAC

  66. Format settings : NBC

  67. Codec ID : A_AAC-5

  68. Duration : 2 h 12 min

  69. Bit rate : 132 kb/s

  70. Channel(s) : 6 channels

  71. Channel layout : C L R Ls Rs LFE

  72. Sampling rate : 48.0 kHz

  73. Frame rate : 23.438 FPS (2048 SPF)

  74. Compression mode : Lossy

  75. Stream size : 124 MiB (2%)

  76. Language : Chinese

  77. Default : No

  78. Forced : No


文件下载


除非特别注明,本文『白蛇2:青蛇劫起[国语配音/中文字幕].White.Snake.2.Green.Snake.2021.WEB-DL.4K.H265.Dolby.Digital.Plus.with.Dolby.Atmo』来源于互联网机器人自动抓取,非本站原创。 浮游电影网不对本文拥有版权,如有侵犯,请联系邮箱:fuyouu#yandex.com[#换成@]投诉。我们会在15个工作日内删除。 但烦请转载时请标明出处:“本文转载于『浮游电影网』,原文地址:https://www.fuyouu.com/14310.html

评论吧骚年!

发表你的见解   

昵称*

E-mail*(建议输入,以便收到博主回复的提示邮件)

验证码*

您可以使用eMule或eMule Mod(Windows)、aMule(Win、Linux、Mac)等软件下载eD2k链接。。
eMule收藏集(.emulecollection)文件是您选中的所有链接的列表文件。eMule可以直接下载它们。
按住SHIFT键选择可以选中多个选择框。
可用文件名和大小选择器来选择文件。
文件名选择器帮您根据文件名称或后缀来选择文件。不分大小写。
符号使用:
和:空格( )、+
不包含:-
或:|
转义:一对英文引号("");
匹配开头:^
匹配结尾:$
例如:
选中所有名称中包含有“eMule”或“0.49c”字眼,但不包含有“exe”字眼的:emule|0.49c -exe
选中所有名称的开头是“eMule”,结尾是“0.49c”的:^emule 0.49c$
选中所有名称中带有“eMule 0.49c”的(必须是“eMule 0.49c”,中间没有别的字符,不能是“eMule fake 0.49c”),需要转义:"emule 0.49c"
大小选择器帮您根据文件大小选择文件。