当前位置: 首页 >> 海外电影 >> 诺斯费拉图[中文字幕].Nosferatu.A.Symphony.of.Horror.1922.1080p.BluRay.DTS.x265-10bit 17.20GB >> 正文

诺斯费拉图[中文字幕].Nosferatu.A.Symphony.of.Horror.1922.1080p.BluRay.DTS.x265-10bit 17.20GB

2021年09月12日 13:39:54     电影发布:来源于网络     电影分类:海外电影     评论(0)    

诺斯费拉图[中文字幕].Nosferatu.A.Symphony.of.Horror.1922.1080p.BluRay.DTS.x265 10bit 17.20GB 奇幻片 恐怖片 海外电影  第1张

◎译 名 诺斯费拉图 / 吸血僵尸(港) / 穆瑙之吸血鬼(台) / 吸血鬼 / 魔鬼诺斯法雷图 / 诺斯菲拉图:第一个吸血鬼 / Nosferatu, a Symphony of Horror

◎片 名 Nosferatu, eine Symphonie des Grauens

◎年 代 1922

◎产 地 德国

◎类 别 恐怖 / 奇幻

◎语 言 无对白

◎上映日期 1922-03-04

◎IMDb链接 https://www.imdb.com/title/tt0013442/

◎豆瓣评分 8.2/10 (11903人评价)

◎豆瓣链接 https://movie.douban.com/subject/1296791/

◎片 长 94 分钟

◎导 演 F·W·茂瑙 F.W. Murnau (id:1014143)

◎编 剧 亨利克·加仑 Henrik Galeen (id:1014960)

布莱姆·斯托克 Bram Stoker (id:1041427)

◎演 员 马科斯·夏瑞克 Max Schreck (id:1049923)

约翰·戈托特 John Gottowt (id:1099156)

格里塔·斯楚瑞德 Greta Schr?der (id:1050471)

Alexander Granach Alexander Granach (id:1101892)

Ruth Landshoff Ruth Landshoff (id:1106489)

马克斯·内梅茨 Max Nemetz (id:1134385)

Georg H. Schnell Georg H. Schnell (id:1141118)

Albert Venohr Albert Venohr (id:1156388)

Wolfgang Heinz Wolfgang Heinz (id:1100920)

Guido Herzfeld Guido Herzfeld (id:1092005)

Karl Etlinger Karl Etlinger (id:1086406)

Gustav Botz Gustav Botz (id:1065251)

古斯塔·冯·瓦根海姆 Gustav von Wangenheim (id:1005517)

Albin Grau Albin Grau (id:1038046)

Peter Schirmann Peter Schirmann (id:1026215)

Hans Posegga Hans Posegga (id:1008581)

Hans Erdmann Hans Erdmann (id:1042993)

Richard Marriott Richard Marriott (id:1044401)

詹姆斯·伯纳德 James Bernard (id:1051313)

Günther Krampf Günther Krampf (id:1008621)

費立茲·華格納 Fritz Arno Wagner (id:1038245)

Albin Grau Albin Grau (id:1038046)

Albin Grau Albin Grau (id:1038046)

◎标 签 德国 / 吸血鬼 / 默片 / 恐怖 / 惊悚 / 德国电影 / F.W.Murnau / 茂瑙

◎简 介

布特(古斯塔夫·冯·沃根海姆 Gustav von Wangenheim 饰)是一家不来梅地产公司的职员,受公司委派去一座古堡与诺斯费拉图伯爵(马科斯·夏瑞克 Max Schreck 饰)做房屋买卖交易,但是在古堡附近的旅店投宿时,人们得知他目的地的反应都很奇怪。到了古堡,见到面目枯槁、行为古怪的诺斯费拉图伯爵,也得知他昼伏夜出的生活习惯,布特对他的身份心生窦疑,终于探知他就是传说中的吸血鬼。布特逃出古堡,伯爵也一路奔向他买好的、位于不来梅的房子。布特回家后,得知吸血鬼伯爵已经到来,而且正是他令小城瘟疫肆虐,他和妻子艾伦(Greta Schr?der 饰)一起,开始设法消灭吸血鬼伯爵……

  1. ##### MediaInfo ######

  2. General

  3. Unique ID : 123133911242307231788083338230822143995 (0x5CA2BA8AF9E5D64009D39A40318D07FB)

  4. Complete name : Nosferatu.A.Symphony.of.Horror.1922.1080p.BluRay.DTS.x265-10bit-10007@BBQDDQ.COM.mkv

  5. Format : Matroska

  6. Format version : Version 4

  7. File size : 17.2 GiB

  8. Duration : 1 h 35 min

  9. Overall bit rate : 25.9 Mb/s

  10. Movie name : Nosferatu A Symphony of Horror 1922 1080p BluRay DTS x265-10bit-10007@BBQDDQ.COM

  11. Encoded date : UTC 2021-09-07 22:51:00

  12. Writing application : mkvmerge v38.0.0 ('The Silent Type') 64-bit

  13. Writing library : libebml v1.3.9 + libmatroska v1.5.2


  14. Video

  15. ID : 1

  16. Format : HEVC

  17. Format/Info : High Efficiency Video Coding

  18. Format profile : Main 10@L5.1@High

  19. Codec ID : V_MPEGH/ISO/HEVC

  20. Duration : 1 h 35 min

  21. Bit rate : 24.3 Mb/s

  22. Width : 1 920 pixels

  23. Height : 1 080 pixels

  24. Display aspect ratio : 16:9

  25. Frame rate mode : Constant

  26. Frame rate : 23.976 (24000/1001/53354) FPS

  27. Color space : YUV

  28. Chroma subsampling : 4:2:0

  29. Bit depth : 10 bits

  30. Bits/(Pixel*Frame) : 0.490

  31. Stream size : 16.2 GiB (94%)

  32. Title : @HDSky

  33. Writing library : x265 - H.265/HEVC codec

  34. Default : Yes

  35. Forced : No


  36. Audio

  37. ID : 2

  38. Format : DTS

  39. Format/Info : Digital Theater Systems

  40. Codec ID : A_DTS

  41. Duration : 1 h 35 min

  42. Bit rate mode : Constant

  43. Bit rate : 1 509 kb/s

  44. Channel(s) : 6 channels

  45. Channel layout : C L R Ls Rs LFE

  46. Sampling rate : 48.0 kHz

  47. Frame rate : 93.750 FPS (512 SPF)

  48. Bit depth : 24 bits

  49. Compression mode : Lossy

  50. Stream size : 1.00 GiB (6%)

  51. Title : English

  52. Language : English

  53. Default : Yes

  54. Forced : No


  55. Text #1

  56. ID : 3

  57. Format : PGS

  58. Muxing mode : zlib

  59. Codec ID : S_HDMV/PGS

  60. Codec ID/Info : Picture based subtitle format used on BDs/HD-DVDs

  61. Duration : 1 h 33 min

  62. Bit rate : 8 672 b/s

  63. Count of elements : 245

  64. Stream size : 5.82 MiB (0%)

  65. Title : CHS

  66. Language : Chinese

  67. Default : Yes

  68. Forced : No


  69. Text #2

  70. ID : 4

  71. Format : PGS

  72. Muxing mode : zlib

  73. Codec ID : S_HDMV/PGS

  74. Codec ID/Info : Picture based subtitle format used on BDs/HD-DVDs

  75. Duration : 1 h 33 min

  76. Bit rate : 8 809 b/s

  77. Count of elements : 245

  78. Stream size : 5.91 MiB (0%)

  79. Title : CHT

  80. Language : Chinese

  81. Default : No

  82. Forced : No


  83. Menu

  84. 00:00:00.000 : en:Chapter 01

  85. 00:03:31.545 : en:Chapter 02

  86. 00:10:22.664 : en:Chapter 03

  87. 00:13:47.285 : en:Chapter 04

  88. 00:18:47.543 : en:Chapter 05

  89. 00:26:18.243 : en:Chapter 06

  90. 00:32:51.469 : en:Chapter 07

  91. 00:39:20.275 : en:Chapter 08

  92. 00:43:15.676 : en:Chapter 09

  93. 00:46:17.775 : en:Chapter 10

  94. 00:50:35.366 : en:Chapter 11

  95. 00:54:05.200 : en:Chapter 12

  96. 01:02:08.725 : en:Chapter 13

  97. 01:10:40.486 : en:Chapter 14

  98. 01:16:30.211 : en:Chapter 15

  99. 01:23:07.232 : en:Chapter 16

  100. 01:26:31.103 : en:Chapter 17

  101. 01:30:39.434 : en:Chapter 18


文件下载


除非特别注明,本文『诺斯费拉图[中文字幕].Nosferatu.A.Symphony.of.Horror.1922.1080p.BluRay.DTS.x265-10bit 17.20GB』来源于互联网机器人自动抓取,非本站原创。 浮游电影网不对本文拥有版权,如有侵犯,请联系邮箱:fuyouu#yandex.com[#换成@]投诉。我们会在15个工作日内删除。 但烦请转载时请标明出处:“本文转载于『浮游电影网』,原文地址:https://www.fuyouu.com/14300.html

评论吧骚年!

发表你的见解   

昵称*

E-mail*(建议输入,以便收到博主回复的提示邮件)

验证码*

您可以使用eMule或eMule Mod(Windows)、aMule(Win、Linux、Mac)等软件下载eD2k链接。。
eMule收藏集(.emulecollection)文件是您选中的所有链接的列表文件。eMule可以直接下载它们。
按住SHIFT键选择可以选中多个选择框。
可用文件名和大小选择器来选择文件。
文件名选择器帮您根据文件名称或后缀来选择文件。不分大小写。
符号使用:
和:空格( )、+
不包含:-
或:|
转义:一对英文引号("");
匹配开头:^
匹配结尾:$
例如:
选中所有名称中包含有“eMule”或“0.49c”字眼,但不包含有“exe”字眼的:emule|0.49c -exe
选中所有名称的开头是“eMule”,结尾是“0.49c”的:^emule 0.49c$
选中所有名称中带有“eMule 0.49c”的(必须是“eMule 0.49c”,中间没有别的字符,不能是“eMule fake 0.49c”),需要转义:"emule 0.49c"
大小选择器帮您根据文件大小选择文件。