当前位置: 首页 >> 国产电影 >> 新精武门:武魂[国语配音/中文字幕].Fist.of.Fury.2021.1080p.WEB-DL.H265.DDP2.0 1.43GB >> 正文

新精武门:武魂[国语配音/中文字幕].Fist.of.Fury.2021.1080p.WEB-DL.H265.DDP2.0 1.43GB

2021年09月09日 21:32:38     电影发布:来源于网络     电影分类:国产电影     评论(0)    

新精武门:武魂[国语配音/中文字幕].Fist.of.Fury.2021.1080p.WEB DL.H265.DDP2.0 1.43GB 动作片 剧情片 国产电影  第1张

◎译 名 新精武门:武魂

◎年 代 2021

◎产 地 中国大陆

◎语 言 汉语普通话

◎上映日期 2021-09-08(中国大陆网络)

◎IMDb链接 https://www.imdb.com/title//

◎豆瓣链接 https://movie.douban.com/subject/35585041/

◎片 长 70分钟

◎导 演 成思宇 Siyu Cheng (id:1455010)

◎编 剧 张圣帆 Shengfan Zhang (id:1410951)

◎演 员 陈冠英 Guanying Chen (id:1419580)

姜萌轩 Michelle Jiang (id:1361364)

徐少强 Norman Chu (id:1048469)

张春仲 Chunzhong Zhang (id:1318275)

杜玉明 Yuming Du (id:1317188)

史洪波 Hung-Bor Sze (id:1390996)

◎标 签 内地 / 中国 / 电影 / 动作 / 中国大陆 / 大陆 / 剧情 / 人性

◎简 介

天生神力的刘晶(陈冠英 饰)在酒楼中无意卷入了一场江湖纷争,混战中救下霍敏(姜萌轩 饰)及其师弟潇洒(孙迅 饰),也让他引来杀身之祸。通过霍敏指引,刘晶来到“霍家拳馆”跟随霍师傅(史洪波 饰)学武术。14年前武林那场腥风血雨,血魔罗(许长超 饰)元气大伤,一场复仇正在酝酿。刘晶将如何守护精武门最后的荣耀?

  1. ##### MediaInfo ######

  2. General

  3. Unique ID : 276630104949662786735298991982532717890 (0xD01D053008166598F319D23F3AE96D42)

  4. Complete name : 新精武门:武魂.Fist.of.Fury.2021.1080p.WEB-DL.H265.DDP2.0-10003@BBQDDQ.COM.mkv

  5. Format : Matroska

  6. Format version : Version 4

  7. File size : 1.43 GiB

  8. Duration : 1 h 10 min

  9. Overall bit rate : 2 907 kb/s

  10. Encoded date : UTC 2021-09-08 17:00:09

  11. Writing application : mkvmerge v61.0.0 ('So') 64-bit

  12. Writing library : libebml v1.4.2 + libmatroska v1.6.4


  13. Video

  14. ID : 1

  15. Format : HEVC

  16. Format/Info : High Efficiency Video Coding

  17. Format profile : Main@L4@Main

  18. Codec ID : V_MPEGH/ISO/HEVC

  19. Duration : 1 h 10 min

  20. Bit rate : 2 809 kb/s

  21. Width : 1 920 pixels

  22. Height : 816 pixels

  23. Display aspect ratio : 2.35:1

  24. Frame rate mode : Constant

  25. Frame rate : 24.000 FPS

  26. Color space : YUV

  27. Chroma subsampling : 4:2:0

  28. Bit depth : 8 bits

  29. Bits/(Pixel*Frame) : 0.075

  30. Stream size : 1.38 GiB (97%)

  31. Default : Yes

  32. Forced : No


  33. Audio

  34. ID : 2

  35. Format : E-AC-3

  36. Format/Info : Enhanced AC-3

  37. Commercial name : Dolby Digital Plus

  38. Codec ID : A_EAC3

  39. Duration : 1 h 10 min

  40. Bit rate mode : Constant

  41. Bit rate : 96.0 kb/s

  42. Channel(s) : 2 channels

  43. Channel layout : L R

  44. Sampling rate : 48.0 kHz

  45. Frame rate : 31.250 FPS (1536 SPF)

  46. Compression mode : Lossy

  47. Stream size : 48.4 MiB (3%)

  48. Service kind : Complete Main

  49. Default : Yes

  50. Forced : No


文件下载


除非特别注明,本文『新精武门:武魂[国语配音/中文字幕].Fist.of.Fury.2021.1080p.WEB-DL.H265.DDP2.0 1.43GB』来源于互联网机器人自动抓取,非本站原创。 浮游电影网不对本文拥有版权,如有侵犯,请联系邮箱:fuyouu#yandex.com[#换成@]投诉。我们会在15个工作日内删除。 但烦请转载时请标明出处:“本文转载于『浮游电影网』,原文地址:https://www.fuyouu.com/14280.html

评论吧骚年!

发表你的见解   

昵称*

E-mail*(建议输入,以便收到博主回复的提示邮件)

验证码*

您可以使用eMule或eMule Mod(Windows)、aMule(Win、Linux、Mac)等软件下载eD2k链接。。
eMule收藏集(.emulecollection)文件是您选中的所有链接的列表文件。eMule可以直接下载它们。
按住SHIFT键选择可以选中多个选择框。
可用文件名和大小选择器来选择文件。
文件名选择器帮您根据文件名称或后缀来选择文件。不分大小写。
符号使用:
和:空格( )、+
不包含:-
或:|
转义:一对英文引号("");
匹配开头:^
匹配结尾:$
例如:
选中所有名称中包含有“eMule”或“0.49c”字眼,但不包含有“exe”字眼的:emule|0.49c -exe
选中所有名称的开头是“eMule”,结尾是“0.49c”的:^emule 0.49c$
选中所有名称中带有“eMule 0.49c”的(必须是“eMule 0.49c”,中间没有别的字符,不能是“eMule fake 0.49c”),需要转义:"emule 0.49c"
大小选择器帮您根据文件大小选择文件。