当前位置: 首页 >> 动画电影 >> 小镇缉凶[中文字幕].The.Dry.2020.1080p.BluRay.x265.10bit.DD5.1.MNHD 6.03GB >> 正文

小镇缉凶[中文字幕].The.Dry.2020.1080p.BluRay.x265.10bit.DD5.1.MNHD 6.03GB

2021年09月09日 21:29:00     电影发布:来源于网络     电影分类:动画电影     评论(0)    

小镇缉凶[中文字幕].The.Dry.2020.1080p.BluRay.x265.10bit.DD5.1.MNHD 6.03GB 剧情片 动画电影  第1张

◎译 名 小镇缉凶 / 迷雾中的小镇

◎片 名 The Dry

◎年 代 2021

◎产 地 澳大利亚 / 美国

◎类 别 剧情

◎语 言 英语

◎上映日期 2021-01-01(澳大利亚)

◎IMDb链接 https://www.imdb.com/title/tt5144174/

◎豆瓣评分 6.8/10 (2305人评价)

◎豆瓣链接 https://movie.douban.com/subject/30391270/

◎片 长 117分钟

◎导 演 罗伯特·康诺利 Robert Connolly (id:1281139)

◎编 剧 罗伯特·康诺利 Robert Connolly (id:1281139)

萨曼莎·斯特劳斯 Samantha Strauss (id:1373634)

哈里·克里普斯 Harry Cripps (id:1281489)

◎演 员 艾瑞克·巴纳 Eric Bana (id:1016693)

吉娜薇·欧瑞丽 Genevieve O'Reilly (id:1319267)

基尔·奥唐纳 Keir O'Donnell (id:1040575)

约翰·波尔森 John Polson (id:1050205)

朱丽娅·布莱克 Julia Blake (id:1278748)

布鲁斯·斯宾斯 Bruce Spence (id:1049682)

威廉·扎帕 William Zappa (id:1165312)

马特·纳夫莱 Matt Nable (id:1333641)

詹姆斯·弗兰切威勒 James Frecheville (id:1275130)

杰里米·林赛·泰勒 Jeremy Lindsay Taylor (id:1115399)

乔·克洛塞克 Joe Klocek (id:1454572)

碧比·贝登科特 BeBe Bettencourt (id:1454563)

克劳德·斯科特-米歇尔 Claude Scott-Mitchell (id:1454221)

山姆·科利特 Sam Corlett (id:1454564)

◎标 签 悬疑 / 犯罪 / 澳大利亚 / 剧情 / 人性 / 2020 / 美国 / 家庭

◎简 介

艾瑞克·巴纳加盟澳大利亚新片[小镇缉凶](The Dry,暂译)。影片改编自简·哈珀同名畅销小说,罗伯特·康诺利(《深暗势力》)自编自导,巴纳、康诺利共同担任监制。影片围绕一个警察回到老家侦破凶案展开,明年二月开机。这也是巴纳自2007年的[我的父亲,罗穆卢斯]后再度拍摄澳大利亚影片。

  1. ##### MediaInfo ######

  2. General

  3. Unique ID : 68333977840574437258681600512769242418 (0x3368A539DDDF61DFECE137CA523DB532)

  4. Complete name : The.Dry.2020.1080p.BluRay.x265.10bit.DD5.1.MNHD-10018@BBQDDQ.COM.mkv

  5. Format : Matroska

  6. Format version : Version 4

  7. File size : 6.03 GiB

  8. Duration : 1 h 57 min

  9. Overall bit rate : 7 364 kb/s

  10. Movie name : The.Dry.2020.1080p.BluRay.x265.10bit.DD5.1.MNHD-10018@BBQDDQ.COM

  11. Encoded date : UTC 2021-09-08 19:42:51

  12. Writing application : mkvmerge v53.0.0 ('Fool's Gold') 64-bit

  13. Writing library : libebml v1.4.1 + libmatroska v1.6.2


  14. Video

  15. ID : 1

  16. Format : HEVC

  17. Format/Info : High Efficiency Video Coding

  18. Format profile : Main 10@L5.1@High

  19. Codec ID : V_MPEGH/ISO/HEVC

  20. Duration : 1 h 57 min

  21. Bit rate : 6 721 kb/s

  22. Width : 1 920 pixels

  23. Height : 800 pixels

  24. Display aspect ratio : 2.40:1

  25. Frame rate mode : Constant

  26. Frame rate : 24.000 FPS

  27. Color space : YUV

  28. Chroma subsampling : 4:2:0

  29. Bit depth : 10 bits

  30. Bits/(Pixel*Frame) : 0.182

  31. Stream size : 5.51 GiB (91%)

  32. Writing library : x265 3.5+1-f0c1022b6:[Linux][GCC 9.3.0][64 bit] 10bit

  33. Encoding settings : cpuid=533541111039 / frame-threads=3 / numa-pools=11 / wpp / pmode / no-pme / no-psnr / no-ssim / log-level=2 / input-csp=1 / input-res=1920x800 / interlace=0 / total-frames=168875 / level-idc=0 / high-tier=1 / uhd-bd=0 / ref=4 / no-allow-non-conformance / no-repeat-headers / annexb / no-aud / no-hrd / info / hash=0 / no-temporal-layers / no-open-gop / min-keyint=1 / keyint=250 / gop-lookahead=0 / bframes=6 / b-adapt=2 / b-pyramid / bframe-bias=0 / rc-lookahead=80 / lookahead-slices=0 / NTMzNTQ=uuDQuD2mJt9fsCf / scenecut=40 / hist-scenecut=0 / radl=0 / no-splice / no-intra-refresh / ctu=32 / min-cu-size=8 / no-rect / no-amp / max-tu-size=32 / tu-inter-depth=4 / tu-intra-depth=4 / limit-tu=0 / rdoq-level=2 / dynamic-rd=0.00 / no-ssim-rd / signhide / no-tskip / nr-intra=0 / nr-inter=0 / no-constrained-intra / strong-intra-smoothing / max-merge=5 / limit-refs=0 / no-limit-modes / me=3 / subme=7 / merange=57 / temporal-mvp / no-frame-dup / no-hme / weightp / weightb / no-analyze-src-pics / deblock=-3:-3 / no-sao / no-sao-non-deblock / rd=4 / selective-sao=0 / no-early-skip / no-rskip / no-fast-intra / no-tskip-fast / no-cu-lossless / b-intra / no-splitrd-skip / rdpenalty=0 / psy-rd=1.50 / psy-rdoq=1.00 / no-rd-refine / no-lossless / cbqpoffs=-2 / crqpoffs=-2 / rc=crf / crf=22.2 / qcomp=0.65 / qpstep=4 / stats-write=0 / stats-read=0 / vbv-maxrate=160000 / vbv-bufsize=160000 / vbv-init=0.9 / min-vbv-fullness=50.0 / max-vbv-fullness=80.0 / crf-max=0.0 / crf-min=0.0 / ipratio=1.30 / pbratio=1.20 / aq-mode=1 / aq-strength=1.00 / no-cutree / zone-count=0 / no-strict-cbr / qg-size=8 / no-rc-grain / qpmax=69 / qpmin=0 / no-const-vbv / sar=0 / overscan=0 / videoformat=5 / range=0 / colorprim=1 / transfer=1 / colormatrix=1 / chromaloc=0 / display-window=0 / cll=0,0 / min-luma=0 / max-luma=1023 / log2-max-poc-lsb=8 / vui-timing-info / vui-hrd-info / slices=1 / no-opt-qp-pps / no-opt-ref-list-length-pps / no-multi-pass-opt-rps / scenecut-bias=0.05 / hist-threshold=0.03 / no-opt-cu-delta-qp / no-aq-motion / no-hdr10 / no-hdr10-opt / no-dhdr10-opt / no-idr-recovery-sei / analysis-reuse-level=0 / analysis-save-reuse-level=0 / analysis-load-reuse-level=0 / scale-factor=0 / refine-intra=0 / refine-inter=0 / refine-mv=1 / refine-ctu-distortion=0 / no-limit-sao / ctu-info=0 / no-lowpass-dct / refine-analysis-type=0 / copy-pic=1 / max-ausize-factor=1.0 / no-dynamic-refine / no-single-sei / no-hevc-aq / no-svt / no-field / qp-adaptation-range=1.00 / scenecut-aware-qp=0conformance-window-offsets / right=0 / bottom=0 / NTMzNTQ= / decoder-max-rate=0 / no-vbv-live-multi-pass

  34. Default : Yes

  35. Forced : No

  36. Color range : Limited

  37. Color primaries : BT.709

  38. Transfer characteristics : BT.709

  39. Matrix coefficients : BT.709


  40. Audio

  41. ID : 2

  42. Format : AC-3

  43. Format/Info : Audio Coding 3

  44. Commercial name : Dolby Digital

  45. Codec ID : A_AC3

  46. Duration : 1 h 57 min

  47. Bit rate mode : Constant

  48. Bit rate : 640 kb/s

  49. Channel(s) : 6 channels

  50. Channel layout : L R C LFE Ls Rs

  51. Sampling rate : 48.0 kHz

  52. Frame rate : 31.250 FPS (1536 SPF)

  53. Compression mode : Lossy

  54. Stream size : 537 MiB (9%)

  55. Language : English

  56. Service kind : Complete Main

  57. Default : Yes

  58. Forced : No


  59. Text #1

  60. ID : 3

  61. Format : ASS

  62. Codec ID : S_TEXT/ASS

  63. Codec ID/Info : Advanced Sub Station Alpha

  64. Duration : 1 h 52 min

  65. Bit rate : 260 b/s

  66. Count of elements : 3640

  67. Compression mode : Lossless

  68. Stream size : 214 KiB (0%)

  69. Title : ChsEng

  70. Language : Chinese

  71. Default : Yes

  72. Forced : No


  73. Text #2

  74. ID : 4

  75. Format : ASS

  76. Codec ID : S_TEXT/ASS

  77. Codec ID/Info : Advanced Sub Station Alpha

  78. Duration : 1 h 52 min

  79. Bit rate : 260 b/s

  80. Count of elements : 3640

  81. Compression mode : Lossless

  82. Stream size : 214 KiB (0%)

  83. Title : ChtEng

  84. Language : Chinese

  85. Default : No

  86. Forced : No


  87. Menu

  88. 00:00:00.000 : en:Chapter 01

  89. 00:10:18.125 : en:Chapter 02

  90. 00:18:41.250 : en:Chapter 03

  91. 00:27:51.458 : en:Chapter 04

  92. 00:37:40.208 : en:Chapter 05

  93. 00:45:57.000 : en:Chapter 06

  94. 00:55:04.042 : en:Chapter 07

  95. 01:03:10.875 : en:Chapter 08

  96. 01:15:37.542 : en:Chapter 09

  97. 01:24:29.583 : en:Chapter 10

  98. 01:32:51.208 : en:Chapter 11

  99. 01:45:40.667 : en:Chapter 12


文件下载


除非特别注明,本文『小镇缉凶[中文字幕].The.Dry.2020.1080p.BluRay.x265.10bit.DD5.1.MNHD 6.03GB』来源于互联网机器人自动抓取,非本站原创。 浮游电影网不对本文拥有版权,如有侵犯,请联系邮箱:fuyouu#yandex.com[#换成@]投诉。我们会在15个工作日内删除。 但烦请转载时请标明出处:“本文转载于『浮游电影网』,原文地址:https://www.fuyouu.com/14278.html

评论吧骚年!

发表你的见解   

昵称*

E-mail*(建议输入,以便收到博主回复的提示邮件)

验证码*

您可以使用eMule或eMule Mod(Windows)、aMule(Win、Linux、Mac)等软件下载eD2k链接。。
eMule收藏集(.emulecollection)文件是您选中的所有链接的列表文件。eMule可以直接下载它们。
按住SHIFT键选择可以选中多个选择框。
可用文件名和大小选择器来选择文件。
文件名选择器帮您根据文件名称或后缀来选择文件。不分大小写。
符号使用:
和:空格( )、+
不包含:-
或:|
转义:一对英文引号("");
匹配开头:^
匹配结尾:$
例如:
选中所有名称中包含有“eMule”或“0.49c”字眼,但不包含有“exe”字眼的:emule|0.49c -exe
选中所有名称的开头是“eMule”,结尾是“0.49c”的:^emule 0.49c$
选中所有名称中带有“eMule 0.49c”的(必须是“eMule 0.49c”,中间没有别的字符,不能是“eMule fake 0.49c”),需要转义:"emule 0.49c"
大小选择器帮您根据文件大小选择文件。