当前位置: 首页 >> 海外电影 >> 开战日[中文字幕].9.April.2015.1080p.BluRay.x265.10bit.DD5.1.MNHD 8.47GB >> 正文

开战日[中文字幕].9.April.2015.1080p.BluRay.x265.10bit.DD5.1.MNHD 8.47GB

2021年09月09日 08:35:53     电影发布:来源于网络     电影分类:海外电影     评论(0)    

开战日[中文字幕].9.April.2015.1080p.BluRay.x265.10bit.DD5.1.MNHD 8.47GB 战争片 历史 剧情片 海外电影  第1张

◎译 名 开战日 / 四月九日 / April 9th

◎片 名 9. April

◎年 代 2015

◎产 地 丹麦

◎类 别 剧情 / 历史 / 战争

◎语 言 丹麦语 / 德语

◎上映日期 2015-03-12(丹麦)

◎IMDb链接 https://www.imdb.com/title/tt3542188/

◎豆瓣评分 7.5/10 (5771人评价)

◎豆瓣链接 https://movie.douban.com/subject/25958726/

◎片 长 93分钟

◎导 演 罗尼·伊兹拉 Roni Ezra (id:1351915)

◎编 剧 托比亚斯·林道赫姆 Tobias Lindholm (id:1327660)

◎演 员 皮鲁·埃斯贝克 Pilou Asb?k (id:1032805)

拉斯·米克尔森 Lars Mikkelsen (id:1045177)

埃利奥特·克罗赛特·霍夫 Elliott Crosset Hove (id:1382417)

西蒙·西尔斯 Simon Sears (id:1391625)

阿里·亚历山大 Ari Alexander (id:1428681)

卢卡斯·施瓦兹·索斯坦松 Lukas Schwarz Thorsteinsson (id:1243214)

◎标 签 战争 / 二战 / 丹麦 / 历史 / 军事 / 丹麦电影 / 2015 / 电影

◎简 介

1940年4月9日清晨,德国军队穿过国界进入丹麦境内。丹麦日德兰岛的自行车连队和摩托车连队是最先抵御德军进攻的丹麦部队……

  1. ##### MediaInfo ######

  2. General

  3. Unique ID : 282616344805036381352692126434565768295 (0xD49DED997D8FACB65F25CF3BE9934467)

  4. Complete name : 9.April.2015.1080p.BluRay.x265.10bit.DD5.1.MNHD-10018@BBQDDQ.COM.mkv

  5. Format : Matroska

  6. Format version : Version 4

  7. File size : 8.47 GiB

  8. Duration : 1 h 32 min

  9. Overall bit rate : 13.1 Mb/s

  10. Movie name : 9.April.2015.1080p.BluRay.x265.10bit.DD5.1.MNHD-10018@BBQDDQ.COM

  11. Encoded date : UTC 2021-09-08 13:24:19

  12. Writing application : mkvmerge v53.0.0 ('Fool's Gold') 64-bit

  13. Writing library : libebml v1.4.1 + libmatroska v1.6.2


  14. Video

  15. ID : 1

  16. Format : HEVC

  17. Format/Info : High Efficiency Video Coding

  18. Format profile : Main 10@L5.1@High

  19. Codec ID : V_MPEGH/ISO/HEVC

  20. Duration : 1 h 32 min

  21. Bit rate : 12.4 Mb/s

  22. Width : 1 920 pixels

  23. Height : 1 036 pixels

  24. Display aspect ratio : 1.85:1

  25. Frame rate mode : Constant

  26. Frame rate : 24.000 FPS

  27. Color space : YUV

  28. Chroma subsampling : 4:2:0

  29. Bit depth : 10 bits

  30. Bits/(Pixel*Frame) : 0.260

  31. Stream size : 8.06 GiB (95%)

  32. Writing library : x265 3.5+1-f0c1022b6:[Linux][GCC 9.3.0][64 bit] 10bit

  33. Encoding settings : cpuid=533541111039 / frame-threads=3 / numa-pools=11 / wpp / pmode / no-pme / no-psnr / no-ssim / log-level=2 / input-csp=1 / input-res=1920x1036 / interlace=0 / total-frames=133567 / level-idc=0 / high-tier=1 / uhd-bd=0 / ref=4 / no-allow-non-conformance / no-repeat-headers / annexb / no-aud / no-hrd / info / hash=0 / no-temporal-layers / no-open-gop / min-keyint=1 / keyint=250 / gop-lookahead=0 / bframes=6 / b-adapt=2 / b-pyramid / bframe-bias=0 / rc-lookahead=80 / lookahead-slices=0 / NTMzNTQ=uuDQuD2mJt9fsCf / scenecut=40 / hist-scenecut=0 / radl=0 / no-splice / no-intra-refresh / ctu=32 / min-cu-size=8 / no-rect / no-amp / max-tu-size=32 / tu-inter-depth=4 / tu-intra-depth=4 / limit-tu=0 / rdoq-level=2 / dynamic-rd=0.00 / no-ssim-rd / signhide / no-tskip / nr-intra=0 / nr-inter=0 / no-constrained-intra / strong-intra-smoothing / max-merge=5 / limit-refs=0 / no-limit-modes / me=3 / subme=7 / merange=57 / temporal-mvp / no-frame-dup / no-hme / weightp / weightb / no-analyze-src-pics / deblock=-3:-3 / no-sao / no-sao-non-deblock / rd=4 / selective-sao=0 / no-early-skip / no-rskip / no-fast-intra / no-tskip-fast / no-cu-lossless / b-intra / no-splitrd-skip / rdpenalty=0 / psy-rd=1.50 / psy-rdoq=1.00 / no-rd-refine / no-lossless / cbqpoffs=-2 / crqpoffs=-2 / rc=crf / crf=24.0 / qcomp=0.65 / qpstep=4 / stats-write=0 / stats-read=0 / vbv-maxrate=160000 / vbv-bufsize=160000 / vbv-init=0.9 / min-vbv-fullness=50.0 / max-vbv-fullness=80.0 / crf-max=0.0 / crf-min=0.0 / ipratio=1.30 / pbratio=1.20 / aq-mode=1 / aq-strength=1.00 / no-cutree / zone-count=0 / no-strict-cbr / qg-size=8 / no-rc-grain / qpmax=69 / qpmin=0 / no-const-vbv / sar=0 / overscan=0 / videoformat=5 / range=0 / colorprim=1 / transfer=1 / colormatrix=1 / chromaloc=0 / display-window=0 / cll=0,0 / min-luma=0 / max-luma=1023 / log2-max-poc-lsb=8 / vui-timing-info / vui-hrd-info / slices=1 / no-opt-qp-pps / no-opt-ref-list-length-pps / no-multi-pass-opt-rps / scenecut-bias=0.05 / hist-threshold=0.03 / no-opt-cu-delta-qp / no-aq-motion / no-hdr10 / no-hdr10-opt / no-dhdr10-opt / no-idr-recovery-sei / analysis-reuse-level=0 / analysis-save-reuse-level=0 / analysis-load-reuse-level=0 / scale-factor=0 / refine-intra=0 / refine-inter=0 / refine-mv=1 / refine-ctu-distortion=0 / no-limit-sao / ctu-info=0 / no-lowpass-dct / refine-analysis-type=0 / copy-pic=1 / max-ausize-factor=1.0 / no-dynamic-refine / no-single-sei / no-hevc-aq / no-svt / no-field / qp-adaptation-range=1.00 / scenecut-aware-qp=0conformance-window-offsets / right=0 / bottom=0 / NTMzNTQ= / decoder-max-rate=0 / no-vbv-live-multi-pass

  34. Default : Yes

  35. Forced : No

  36. Color range : Limited

  37. Color primaries : BT.709

  38. Transfer characteristics : BT.709

  39. Matrix coefficients : BT.709


  40. Audio

  41. ID : 2

  42. Format : AC-3

  43. Format/Info : Audio Coding 3

  44. Commercial name : Dolby Digital

  45. Codec ID : A_AC3

  46. Duration : 1 h 32 min

  47. Bit rate mode : Constant

  48. Bit rate : 640 kb/s

  49. Channel(s) : 6 channels

  50. Channel layout : L R C LFE Ls Rs

  51. Sampling rate : 48.0 kHz

  52. Frame rate : 31.250 FPS (1536 SPF)

  53. Compression mode : Lossy

  54. Stream size : 425 MiB (5%)

  55. Language : Danish

  56. Service kind : Complete Main

  57. Default : Yes

  58. Forced : No


  59. Text #1

  60. ID : 3

  61. Format : ASS

  62. Codec ID : S_TEXT/ASS

  63. Codec ID/Info : Advanced Sub Station Alpha

  64. Duration : 1 h 28 min

  65. Bit rate : 118 b/s

  66. Count of elements : 830

  67. Compression mode : Lossless

  68. Stream size : 76.6 KiB (0%)

  69. Title : ChsEng

  70. Language : Chinese

  71. Default : Yes

  72. Forced : No


  73. Text #2

  74. ID : 4

  75. Format : UTF-8

  76. Codec ID : S_TEXT/UTF8

  77. Codec ID/Info : UTF-8 Plain Text

  78. Duration : 1 h 28 min

  79. Bit rate : 87 b/s

  80. Count of elements : 829

  81. Stream size : 56.2 KiB (0%)

  82. Title : ChsEng

  83. Language : Chinese

  84. Default : No

  85. Forced : No


  86. Text #3

  87. ID : 5

  88. Format : UTF-8

  89. Codec ID : S_TEXT/UTF8

  90. Codec ID/Info : UTF-8 Plain Text

  91. Duration : 1 h 28 min

  92. Bit rate : 41 b/s

  93. Count of elements : 829

  94. Stream size : 26.5 KiB (0%)

  95. Title : Chs

  96. Language : Chinese

  97. Default : No

  98. Forced : No


  99. Text #4

  100. ID : 6

  101. Format : UTF-8

  102. Codec ID : S_TEXT/UTF8

  103. Codec ID/Info : UTF-8 Plain Text

  104. Duration : 1 h 26 min

  105. Bit rate : 44 b/s

  106. Count of elements : 809

  107. Stream size : 28.2 KiB (0%)

  108. Title : Eng

  109. Language : English

  110. Default : No

  111. Forced : No


  112. Menu

  113. 00:00:00.000 : en:Chapter 01

  114. 00:08:10.208 : en:Chapter 02

  115. 00:16:12.625 : en:Chapter 03

  116. 00:26:55.208 : en:Chapter 04

  117. 00:34:41.417 : en:Chapter 05

  118. 00:41:39.208 : en:Chapter 06

  119. 00:48:42.208 : en:Chapter 07

  120. 00:58:17.625 : en:Chapter 08

  121. 01:07:35.417 : en:Chapter 09

  122. 01:13:34.000 : en:Chapter 10

  123. 01:19:41.417 : en:Chapter 11

  124. 01:27:47.000 : en:Chapter 12




文件下载


除非特别注明,本文『开战日[中文字幕].9.April.2015.1080p.BluRay.x265.10bit.DD5.1.MNHD 8.47GB』来源于互联网机器人自动抓取,非本站原创。 浮游电影网不对本文拥有版权,如有侵犯,请联系邮箱:fuyouu#yandex.com[#换成@]投诉。我们会在15个工作日内删除。 但烦请转载时请标明出处:“本文转载于『浮游电影网』,原文地址:https://www.fuyouu.com/14265.html

评论吧骚年!

发表你的见解   

昵称*

E-mail*(建议输入,以便收到博主回复的提示邮件)

验证码*

您可以使用eMule或eMule Mod(Windows)、aMule(Win、Linux、Mac)等软件下载eD2k链接。。
eMule收藏集(.emulecollection)文件是您选中的所有链接的列表文件。eMule可以直接下载它们。
按住SHIFT键选择可以选中多个选择框。
可用文件名和大小选择器来选择文件。
文件名选择器帮您根据文件名称或后缀来选择文件。不分大小写。
符号使用:
和:空格( )、+
不包含:-
或:|
转义:一对英文引号("");
匹配开头:^
匹配结尾:$
例如:
选中所有名称中包含有“eMule”或“0.49c”字眼,但不包含有“exe”字眼的:emule|0.49c -exe
选中所有名称的开头是“eMule”,结尾是“0.49c”的:^emule 0.49c$
选中所有名称中带有“eMule 0.49c”的(必须是“eMule 0.49c”,中间没有别的字符,不能是“eMule fake 0.49c”),需要转义:"emule 0.49c"
大小选择器帮您根据文件大小选择文件。