当前位置: 首页 >> 日韩电影 >> 阿基里斯与龟[中文字幕].Achilles.and.the.Tortoise.2008.1080p.BluRay.x265.10bit.DD5.1.MNHD 6.59GB >> 正文

阿基里斯与龟[中文字幕].Achilles.and.the.Tortoise.2008.1080p.BluRay.x265.10bit.DD5.1.MNHD 6.59GB

2021年09月09日 08:34:45     电影发布:来源于网络     电影分类:日韩电影     评论(0)    

阿基里斯与龟[中文字幕].Achilles.and.the.Tortoise.2008.1080p.BluRay.x265.10bit.DD5.1.MNHD 6.59GB 喜剧片 剧情片 日韩电影  第1张

◎译 名 阿基里斯与龟 / 画狂师(港) / Akiresu to kame / Achilles and the tortoise

◎片 名 アキレスと亀

◎年 代 2008

◎产 地 日本

◎类 别 剧情 / 喜剧

◎语 言 日语

◎上映日期 2008-09-20(日本)

◎IMDb链接 https://www.imdb.com/title/tt1217243/

◎豆瓣评分 8.3/10 (20608人评价)

◎豆瓣链接 https://movie.douban.com/subject/3039187/

◎片 长 119分钟

◎导 演 北野武 Takeshi Kitano (id:1054423)

◎编 剧 北野武 Takeshi Kitano (id:1054423)

◎演 员 北野武 Takeshi Kitano (id:1054423)

樋口可南子 Kanako Higuchi (id:1037635)

麻生久美子 Kumiko Aso (id:1058969)

圆城寺彩 Enjohji Aya (id:1024604)

林田麻里 Miki Hayashida (id:1361220)

伊武雅刀 Masat? Ibu (id:1003500)

兼子二郎 Beat Kiyoshi (id:1426736)

小林太树 Taigi Kobayashi (id:1200973)

森下能幸 Yoshiyuki Morishita (id:1038001)

中尾彬 Akira Nakao (id:1025761)

仁科贵 Takashi Nishina (id:1349821)

大森南朋 Nao Omori (id:1005286)

Bobby Ologun Bobby Ologun (id:1234005)

大杉涟 Ren Ohsugi (id:1134227)

寺岛进 Susumu Terajima (id:1041631)

德永绘里 Eri Tokunaga (id:1046778)

筒井真理子 Mariko Tsutsui (id:1328157)

柳忧怜 Y?rei Yanagi (id:1001599)

吉冈澪皇 Reik? Yoshioka (id:1275220)

大林丈史 Takeshi ?bayashi (id:1008387)

大竹真 Makoto Otake (id:1312825)

濑户夏实 (id:1367020)

布施绘里 Eri Fuse (id:1051850)

浅川稚广 Chihiro Asakawa (id:1360751)

梶浦由记 Yuki Kajiura (id:1025597)

柳岛克己 Katsumi Yanagijima (id:1301399)

北野武 Takeshi Kitano (id:1054423)

矶田典宏 Norihiro Isoda (id:1287410)

◎标 签 北野武 / 日本 / 日本电影 / 艺术 / 阿基里斯与龟 / 2008 / 剧情 / 麻生久美子

◎简 介

富商之子仓持真知寿(吉岡澪皇 饰)从少年时代便痴迷绘画,随着父亲企业的破产,父母相继自杀,真知寿的童年也变得一片黯淡。即便如此,他也从未放弃成为画家的梦想。时光流转,转眼长成青年的真知寿(柳忧怜 饰)自顾自徜徉在艺术的世界中。为了提高技艺,他就读艺术学校,遇到一班志同道合的好朋友,和他们经历了喜怒哀乐、悲欢离合。他经常往返于画廊,而作品却迟迟得不到赏识,唯有同在印刷厂打工的少女幸子(麻生久美子 饰)真切理解真知寿的艺术。

人过中年,真知寿(北野武 饰)依旧默默无闻,但即使生活怎样清贫,他的妻子幸子(樋口可南子 饰)始终与其相伴,相互搀扶继续着这条充满磨难的艺术之路……

本片荣获2009年保加利亚索非亚国际电影节观众大奖。

◎获奖情况 (共1项)

第65届威尼斯电影节 (2008)

金狮奖(提名)

└──北野武 (id:1054423)

  1. ##### MediaInfo ######

  2. General

  3. Unique ID : 311672925756934733475048114636259983020 (0xEA7A05A5872796EB8C3BBBD78771FEAC)

  4. Complete name : Achilles.and.the.Tortoise.2008.1080p.BluRay.x265.10bit.DD5.1.MNHD-10018@BBQDDQ.COM.mkv

  5. Format : Matroska

  6. Format version : Version 4

  7. File size : 6.59 GiB

  8. Duration : 2 h 0 min

  9. Overall bit rate : 7 854 kb/s

  10. Movie name : Achilles.and.the.Tortoise.2008.1080p.BluRay.x265.10bit.DD5.1.MNHD-10018@BBQDDQ.COM

  11. Encoded date : UTC 2021-09-08 14:39:58

  12. Writing application : mkvmerge v53.0.0 ('Fool's Gold') 64-bit

  13. Writing library : libebml v1.4.1 + libmatroska v1.6.2


  14. Video

  15. ID : 1

  16. Format : HEVC

  17. Format/Info : High Efficiency Video Coding

  18. Format profile : Main 10@L5.1@High

  19. Codec ID : V_MPEGH/ISO/HEVC

  20. Duration : 2 h 0 min

  21. Bit rate : 7 203 kb/s

  22. Width : 1 920 pixels

  23. Height : 1 038 pixels

  24. Display aspect ratio : 1.85:1

  25. Frame rate mode : Constant

  26. Frame rate : 23.976 (24000/1001/53354) FPS

  27. Color space : YUV

  28. Chroma subsampling : 4:2:0

  29. Bit depth : 10 bits

  30. Bits/(Pixel*Frame) : 0.151

  31. Stream size : 6.04 GiB (92%)

  32. Writing library : x265 3.5+1-f0c1022b6:[Linux][GCC 9.3.0][64 bit] 10bit

  33. Encoding settings : cpuid=533541111039 / frame-threads=3 / numa-pools=11 / wpp / pmode / no-pme / no-psnr / no-ssim / log-level=2 / input-csp=1 / input-res=1920x1038 / interlace=0 / total-frames=172725 / level-idc=0 / high-tier=1 / uhd-bd=0 / ref=4 / no-allow-non-conformance / no-repeat-headers / annexb / no-aud / no-hrd / info / hash=0 / no-temporal-layers / no-open-gop / min-keyint=1 / keyint=250 / gop-lookahead=0 / bframes=6 / b-adapt=2 / b-pyramid / bframe-bias=0 / rc-lookahead=80 / lookahead-slices=0 / NTMzNTQ=uuDQuD2mJt9fsCf / scenecut=40 / hist-scenecut=0 / radl=0 / no-splice / no-intra-refresh / ctu=32 / min-cu-size=8 / no-rect / no-amp / max-tu-size=32 / tu-inter-depth=4 / tu-intra-depth=4 / limit-tu=0 / rdoq-level=2 / dynamic-rd=0.00 / no-ssim-rd / signhide / no-tskip / nr-intra=0 / nr-inter=0 / no-constrained-intra / strong-intra-smoothing / max-merge=5 / limit-refs=0 / no-limit-modes / me=3 / subme=7 / merange=57 / temporal-mvp / no-frame-dup / no-hme / weightp / weightb / no-analyze-src-pics / deblock=-3:-3 / no-sao / no-sao-non-deblock / rd=4 / selective-sao=0 / no-early-skip / no-rskip / no-fast-intra / no-tskip-fast / no-cu-lossless / b-intra / no-splitrd-skip / rdpenalty=0 / psy-rd=1.50 / psy-rdoq=1.00 / no-rd-refine / no-lossless / cbqpoffs=-2 / crqpoffs=-2 / rc=crf / crf=21.6 / qcomp=0.65 / qpstep=4 / stats-write=0 / stats-read=0 / vbv-maxrate=160000 / vbv-bufsize=160000 / vbv-init=0.9 / min-vbv-fullness=50.0 / max-vbv-fullness=80.0 / crf-max=0.0 / crf-min=0.0 / ipratio=1.30 / pbratio=1.20 / aq-mode=1 / aq-strength=1.00 / no-cutree / zone-count=0 / no-strict-cbr / qg-size=8 / no-rc-grain / qpmax=69 / qpmin=0 / no-const-vbv / sar=0 / overscan=0 / videoformat=5 / range=0 / colorprim=1 / transfer=1 / colormatrix=1 / chromaloc=0 / display-window=0 / cll=0,0 / min-luma=0 / max-luma=1023 / log2-max-poc-lsb=8 / vui-timing-info / vui-hrd-info / slices=1 / no-opt-qp-pps / no-opt-ref-list-length-pps / no-multi-pass-opt-rps / scenecut-bias=0.05 / hist-threshold=0.03 / no-opt-cu-delta-qp / no-aq-motion / no-hdr10 / no-hdr10-opt / no-dhdr10-opt / no-idr-recovery-sei / analysis-reuse-level=0 / analysis-save-reuse-level=0 / analysis-load-reuse-level=0 / scale-factor=0 / refine-intra=0 / refine-inter=0 / refine-mv=1 / refine-ctu-distortion=0 / no-limit-sao / ctu-info=0 / no-lowpass-dct / refine-analysis-type=0 / copy-pic=1 / max-ausize-factor=1.0 / no-dynamic-refine / no-single-sei / no-hevc-aq / no-svt / no-field / qp-adaptation-range=1.00 / scenecut-aware-qp=0conformance-window-offsets / right=0 / bottom=0 / NTMzNTQ= / decoder-max-rate=0 / no-vbv-live-multi-pass

  34. Default : Yes

  35. Forced : No

  36. Color range : Limited

  37. Color primaries : BT.709

  38. Transfer characteristics : BT.709

  39. Matrix coefficients : BT.709


  40. Audio

  41. ID : 2

  42. Format : AC-3

  43. Format/Info : Audio Coding 3

  44. Commercial name : Dolby Digital

  45. Codec ID : A_AC3

  46. Duration : 2 h 0 min

  47. Bit rate mode : Constant

  48. Bit rate : 640 kb/s

  49. Channel(s) : 6 channels

  50. Channel layout : L R C LFE Ls Rs

  51. Sampling rate : 48.0 kHz

  52. Frame rate : 31.250 FPS (1536 SPF)

  53. Compression mode : Lossy

  54. Stream size : 550 MiB (8%)

  55. Language : Japanese

  56. Service kind : Complete Main

  57. Default : Yes

  58. Forced : No


  59. Text #1

  60. ID : 3

  61. Format : UTF-8

  62. Codec ID : S_TEXT/UTF8

  63. Codec ID/Info : UTF-8 Plain Text

  64. Duration : 1 h 54 min

  65. Bit rate : 22 b/s

  66. Count of elements : 862

  67. Stream size : 19.2 KiB (0%)

  68. Title : Chs

  69. Language : Chinese

  70. Default : Yes

  71. Forced : No


  72. Text #2

  73. ID : 4

  74. Format : UTF-8

  75. Codec ID : S_TEXT/UTF8

  76. Codec ID/Info : UTF-8 Plain Text

  77. Duration : 1 h 54 min

  78. Bit rate : 22 b/s

  79. Count of elements : 862

  80. Stream size : 19.2 KiB (0%)

  81. Title : Cht

  82. Language : Chinese

  83. Default : No

  84. Forced : No


  85. Text #3

  86. ID : 5

  87. Format : PGS

  88. Muxing mode : zlib

  89. Codec ID : S_HDMV/PGS

  90. Codec ID/Info : Picture based subtitle format used on BDs/HD-DVDs

  91. Duration : 1 h 59 min

  92. Bit rate : 31.2 kb/s

  93. Count of elements : 2414

  94. Stream size : 26.6 MiB (0%)

  95. Title : Eng

  96. Language : English

  97. Default : No

  98. Forced : No



文件下载


除非特别注明,本文『阿基里斯与龟[中文字幕].Achilles.and.the.Tortoise.2008.1080p.BluRay.x265.10bit.DD5.1.MNHD 6.59GB』来源于互联网机器人自动抓取,非本站原创。 浮游电影网不对本文拥有版权,如有侵犯,请联系邮箱:fuyouu#yandex.com[#换成@]投诉。我们会在15个工作日内删除。 但烦请转载时请标明出处:“本文转载于『浮游电影网』,原文地址:https://5.189.174.242/14264.html

评论吧骚年!

发表你的见解   

昵称*

E-mail*(建议输入,以便收到博主回复的提示邮件)

验证码*

您可以使用eMule或eMule Mod(Windows)、aMule(Win、Linux、Mac)等软件下载eD2k链接。。
eMule收藏集(.emulecollection)文件是您选中的所有链接的列表文件。eMule可以直接下载它们。
按住SHIFT键选择可以选中多个选择框。
可用文件名和大小选择器来选择文件。
文件名选择器帮您根据文件名称或后缀来选择文件。不分大小写。
符号使用:
和:空格( )、+
不包含:-
或:|
转义:一对英文引号("");
匹配开头:^
匹配结尾:$
例如:
选中所有名称中包含有“eMule”或“0.49c”字眼,但不包含有“exe”字眼的:emule|0.49c -exe
选中所有名称的开头是“eMule”,结尾是“0.49c”的:^emule 0.49c$
选中所有名称中带有“eMule 0.49c”的(必须是“eMule 0.49c”,中间没有别的字符,不能是“eMule fake 0.49c”),需要转义:"emule 0.49c"
大小选择器帮您根据文件大小选择文件。