当前位置: 首页 >> 欧美电影 >> 王牌保镖2[中文字幕].The.Hitman's.Wife's.Bodyguard.2021.1080p.BluRay.TrueHD.7.1.Atmos.x265-10bit 7.22GB >> 正文

王牌保镖2[中文字幕].The.Hitman's.Wife's.Bodyguard.2021.1080p.BluRay.TrueHD.7.1.Atmos.x265-10bit 7.22GB

2021年09月09日 08:29:08     电影发布:来源于网络     电影分类:欧美电影     评论(0)    

王牌保镖2[中文字幕].The.Hitmans.Wifes.Bodyguard.2021.1080p.BluRay.TrueHD.7.1.Atmos.x265 10bit 7.22GB 犯罪片 喜剧片 动作片 欧美电影  第1张

◎译 名 王牌保镖2 / 杀手妻子的保镖 / 保镖救杀手2(港) / The Hitman's Bodyguard 2

◎片 名 The Hitman's Wife's Bodyguard

◎年 代 2021

◎产 地 美国 / 英国

◎类 别 喜剧 / 动作 / 犯罪

◎语 言 英语

◎上映日期 2021-06-16(美国)

◎IMDb链接 https://www.imdb.com/title/tt8385148/

◎豆瓣评分 6.3/10 (15879人评价)

◎豆瓣链接 https://movie.douban.com/subject/30216729/

◎片 长 116分钟

◎导 演 帕特里克·休斯 Patrick Hughes (id:1328352)

◎编 剧 汤姆·奥康纳 Tom O'Connor (id:1335447)

布兰登·墨菲 Brandon Murphy (id:1458667)

菲利普·墨菲 Phillip Murphy (id:1458668)

◎演 员 瑞安·雷诺兹 Ryan Reynolds (id:1053623)

塞缪尔·杰克逊 Samuel L. Jackson (id:1054408)

萨尔玛·海耶克 Salma Hayek (id:1047986)

弗兰克·格里罗 Frank Grillo (id:1100321)

理查德·E·格兰特 Richard E. Grant (id:1048188)

安东尼奥·班德拉斯 Antonio Banderas (id:1022582)

摩根·弗里曼 Morgan Freeman (id:1054534)

斯图尔特·亚历山大 Stewart Alexander (id:1458669)

早乙女津和雪 Tsuwayuki Saotome (id:1458671)

丽贝卡·弗朗特 Rebecca Front (id:1010702)

诺杰·赫拉尔 Noortje Herlaar (id:1273893)

迈克尔·戈尔 Michael Gor (id:1458670)

乔治·格伦 Georgie Glen (id:1414886)

巴里·阿茨玛 Barry Atsma (id:1014500)

蒂内·朱斯特拉 Tine Joustra (id:1458672)

加里·奥德曼 Gary Oldman (id:1010507)

玛丽安娜·维基尔斯卡 Mariana Vekilska (id:1458673)

布莱恩·卡斯佩 Brian Caspe (id:1185866)

丹柯·约尔丹诺夫 Danko Jordanov (id:1190569)

西蒙·安德鲁 Simón Andreu (id:1058576)

塞尔吉奥·托里科 Sergio Torrico (id:1368363)

布莱克·瑞特森 Blake Ritson (id:1274371)

汤姆·霍珀 Tom Hopper (id:1315896)

加布里埃拉·赖特 Gabriella Wright (id:1352456)

卡罗琳·古多尔 Caroline Goodall (id:1041165)

爱丽丝·麦克米兰 Alice McMillan (id:1392191)

伊万·朱里奇 Ivan Djuricic (id:1238458)

米尔托斯·耶罗勒曼 Miltos Yerolemou (id:1434507)

帕特里克·休斯 Patrick Hughes (id:1328352)

德拉甘·米恰诺维奇 Dragan Mi?anovi? (id:1124740)

托米·梅 Tomi May (id:1361731)

乔纳斯·塔金顿 Jonas Talkington (id:1213443)

小恩佐·斯奎利诺 Enzo Squillino Jr. (id:1153606)

吉欧里奥·贝鲁蒂 Giulio Berruti (id:1214265)

鲁道夫·科萨托 Rodolfo Corsato (id:1281312)

卡蒙提普·克里希·阿什顿 Kamontip Krissy Ashton (id:1412747)

贝卡·宝陵 Bekka Bowling (id:1412748)

贝恩·科拉科 Bern Colla?o (id:1394212)

内森·库珀 Nathan Cooper (id:1383903)

罗杰·金 Roger King (id:1396422)

阿德南·昆迪 Adnan Kundi (id:1458085)

马雷克·里奇滕博格 Marek Lichtenberg (id:1449365)

希滕·珀泰尔 Hiten Patel (id:1392995)

佩特拉·武凯利奇 Petra Vukelic (id:1251269)

Harry Taurasi Harry Taurasi (id:1452066)

Amar Bukvic Amar Bukvic (id:1194514)

Csilla Barath-Bastaic Csilla Barath-Bastaic (id:1200086)

James Maclurcan James Maclurcan (id:1253936)

克里斯蒂娜·坎贝尔 Christa Campbell (id:1036612)

博兹·大卫逊 Boaz Davidson (id:1040974)

瓦伦丁·迪米特洛夫 Valentin Dimitrov (id:1194951)

艾威·勒纳 Avi Lerner (id:1027972)

海蒂·乔·马克尔 Heidi Jo Markel (id:1014510)

艾特利·奥瓦逊 Atli ?rvarsson (id:1010033)

特里·斯塔塞 Terry Stacey (id:1298219)

妮科尔·亨布拉 Nicholle Hembra (id:1434456)

◎标 签 喜剧 / 动作 / 美国 / 犯罪 / 2021 / 电影 / 欧美 / 電影

◎简 介

“交叉骨”弗兰克·格里罗加盟《王牌保镖》续集《杀手妻子的保镖》,瑞恩·雷诺兹、塞缪尔·杰克逊、塞尔玛·海耶克回归主演,导演帕特里克·修斯也回归执导。讲述Michael(雷诺兹)被杰克逊和海耶克饰演的夫妇招募,三人去到阿玛菲海岸执行任务。

格里罗饰演一名国际刑警,需要三位的帮助来阻止欧洲发生的一场网络攻击。

  1. ##### MediaInfo ######

  2. General

  3. Unique ID : 187500068306712137107756852848542545232 (0x8D0F3319D0A0AD1487B0ADC9130AF550)

  4. Complete name : The.Hitman's.Wife's.Bodyguard.2021.1080p.BluRay.TrueHD.7.1.Atmos.x265-10bit-10007@BBQDDQ.COM.mkv

  5. Format : Matroska

  6. Format version : Version 4

  7. File size : 7.22 GiB

  8. Duration : 1 h 39 min

  9. Overall bit rate mode : Variable

  10. Overall bit rate : 10.4 Mb/s

  11. Movie name : The Hitman's Wife's Bodyguard 2021 1080p BluRay TrueHD 7.1 Atmos x265-10bit-10007@BBQDDQ.COM

  12. Encoded date : UTC 2021-09-07 19:26:50

  13. Writing application : mkvmerge v38.0.0 ('The Silent Type') 64-bit

  14. Writing library : libebml v1.3.9 + libmatroska v1.5.2


  15. Video

  16. ID : 1

  17. Format : HEVC

  18. Format/Info : High Efficiency Video Coding

  19. Format profile : Main 10@L5.1@High

  20. Codec ID : V_MPEGH/ISO/HEVC

  21. Duration : 1 h 39 min

  22. Bit rate : 6 655 kb/s

  23. Width : 1 920 pixels

  24. Height : 804 pixels

  25. Display aspect ratio : 2.40:1

  26. Frame rate mode : Constant

  27. Frame rate : 23.976 (24000/1001/53354) FPS

  28. Color space : YUV

  29. Chroma subsampling : 4:2:0

  30. Bit depth : 10 bits

  31. Bits/(Pixel*Frame) : 0.180

  32. Stream size : 4.63 GiB (64%)

  33. Title : howfuckedareyounow@HDSky

  34. Writing library : x265 - H.265/HEVC codec

  35. Default : Yes

  36. Forced : No


  37. Audio #1

  38. ID : 2

  39. Format : MLP FBA 16-ch

  40. Format/Info : Meridian Lossless Packing FBA with 16-channel presentation

  41. Commercial name : Dolby TrueHD with Dolby Atmos

  42. Codec ID : A_TRUEHD

  43. Duration : 1 h 39 min

  44. Bit rate mode : Variable

  45. Bit rate : 2 930 kb/s

  46. Maximum bit rate : 4 608 kb/s

  47. Channel(s) : 8 channels

  48. Channel layout : L R C LFE Ls Rs Lb Rb

  49. Sampling rate : 48.0 kHz

  50. Frame rate : 1 200.000 FPS (40 SPF)

  51. Compression mode : Lossless

  52. Stream size : 2.04 GiB (28%)

  53. Title : English

  54. Language : English

  55. Default : Yes

  56. Forced : No

  57. Number of dynamic objects : 15

  58. Bed channel count : 1 channel

  59. Bed channel configuration : LFE


  60. Audio #2

  61. ID : 3

  62. Format : AC-3

  63. Format/Info : Audio Coding 3

  64. Commercial name : Dolby Digital

  65. Codec ID : A_AC3

  66. Duration : 1 h 39 min

  67. Bit rate mode : Constant

  68. Bit rate : 640 kb/s

  69. Channel(s) : 6 channels

  70. Channel layout : L R C LFE Ls Rs

  71. Sampling rate : 48.0 kHz

  72. Frame rate : 31.250 FPS (1536 SPF)

  73. Compression mode : Lossy

  74. Stream size : 456 MiB (6%)

  75. Service kind : Complete Main

  76. Default : No

  77. Forced : No


  78. Text #1

  79. ID : 4

  80. Format : PGS

  81. Muxing mode : zlib

  82. Codec ID : S_HDMV/PGS

  83. Codec ID/Info : Picture based subtitle format used on BDs/HD-DVDs

  84. Duration : 1 h 32 min

  85. Bit rate : 43.3 kb/s

  86. Count of elements : 2820

  87. Stream size : 28.6 MiB (0%)

  88. Title : CHS

  89. Language : Chinese

  90. Default : Yes

  91. Forced : No


  92. Text #2

  93. ID : 5

  94. Format : PGS

  95. Muxing mode : zlib

  96. Codec ID : S_HDMV/PGS

  97. Codec ID/Info : Picture based subtitle format used on BDs/HD-DVDs

  98. Duration : 1 h 32 min

  99. Bit rate : 44.4 kb/s

  100. Count of elements : 2820

  101. Stream size : 29.3 MiB (0%)

  102. Title : CHT

  103. Language : Chinese

  104. Default : No

  105. Forced : No


  106. Text #3

  107. ID : 6

  108. Format : PGS

  109. Muxing mode : zlib

  110. Codec ID : S_HDMV/PGS

  111. Codec ID/Info : Picture based subtitle format used on BDs/HD-DVDs

  112. Duration : 1 h 32 min

  113. Bit rate : 53.6 kb/s

  114. Count of elements : 3253

  115. Stream size : 35.4 MiB (0%)

  116. Title : ENG

  117. Language : English

  118. Default : No

  119. Forced : No


  120. Menu

  121. 00:00:00.000 : en:Chapter 01

  122. 00:05:30.664 : en:Chapter 02

  123. 00:12:17.236 : en:Chapter 03

  124. 00:20:47.788 : en:Chapter 04

  125. 00:26:59.910 : en:Chapter 05

  126. 00:30:44.217 : en:Chapter 06

  127. 00:37:09.519 : en:Chapter 07

  128. 00:46:16.899 : en:Chapter 08

  129. 00:49:42.855 : en:Chapter 09

  130. 00:55:01.381 : en:Chapter 10

  131. 00:59:19.473 : en:Chapter 11

  132. 01:04:09.721 : en:Chapter 12

  133. 01:13:17.560 : en:Chapter 13

  134. 01:17:44.326 : en:Chapter 14

  135. 01:22:40.914 : en:Chapter 15

  136. 01:30:11.156 : en:Chapter 16



文件下载


除非特别注明,本文『王牌保镖2[中文字幕].The.Hitman's.Wife's.Bodyguard.2021.1080p.BluRay.TrueHD.7.1.Atmos.x265-10bit 7.22GB』来源于互联网机器人自动抓取,非本站原创。 浮游电影网不对本文拥有版权,如有侵犯,请联系邮箱:fuyouu#yandex.com[#换成@]投诉。我们会在15个工作日内删除。 但烦请转载时请标明出处:“本文转载于『浮游电影网』,原文地址:https://www.fuyouu.com/14260.html

评论吧骚年!

发表你的见解   

昵称*

E-mail*(建议输入,以便收到博主回复的提示邮件)

验证码*

您可以使用eMule或eMule Mod(Windows)、aMule(Win、Linux、Mac)等软件下载eD2k链接。。
eMule收藏集(.emulecollection)文件是您选中的所有链接的列表文件。eMule可以直接下载它们。
按住SHIFT键选择可以选中多个选择框。
可用文件名和大小选择器来选择文件。
文件名选择器帮您根据文件名称或后缀来选择文件。不分大小写。
符号使用:
和:空格( )、+
不包含:-
或:|
转义:一对英文引号("");
匹配开头:^
匹配结尾:$
例如:
选中所有名称中包含有“eMule”或“0.49c”字眼,但不包含有“exe”字眼的:emule|0.49c -exe
选中所有名称的开头是“eMule”,结尾是“0.49c”的:^emule 0.49c$
选中所有名称中带有“eMule 0.49c”的(必须是“eMule 0.49c”,中间没有别的字符,不能是“eMule fake 0.49c”),需要转义:"emule 0.49c"
大小选择器帮您根据文件大小选择文件。