当前位置: 首页 >> 国产电影 >> 冲天火[国粤语配音/中文字幕].Sky.On.Fire.2016.1080p.BluRay.x265.10bit.DTS.2Audio 8.21GB >> 正文

冲天火[国粤语配音/中文字幕].Sky.On.Fire.2016.1080p.BluRay.x265.10bit.DTS.2Audio 8.21GB

2021年09月09日 08:26:14     电影发布:来源于网络     电影分类:国产电影     评论(0)    

冲天火[国粤语配音/中文字幕].Sky.On.Fire.2016.1080p.BluRay.x265.10bit.DTS.2Audio 8.21GB 悬疑片 动作片 国产电影  第1张

◎译 名 冲天火 / 飞霜 / 天火 / 天空一号 / Sky on Fire

◎年 代 2016

◎产 地 中国大陆

◎类 别 动作 / 悬疑

◎语 言 汉语普通话 / 粤语

◎上映日期 2016-11-25(中国大陆)

◎IMDb链接 https://www.imdb.com/title/tt6157600/

◎豆瓣评分 3.6/10 (12589人评价)

◎豆瓣链接 https://movie.douban.com/subject/26365631/

◎片 长 100分钟

◎导 演 林岭东 Ringo Lam (id:1275076)

◎编 剧 林岭东 Ringo Lam (id:1275076)

深泽寛 Hiroshi Fukazawa (id:1425972)

◎演 员 吴彦祖 Daniel Wu (id:1027502)

张若昀 Ruoyun Zhang (id:1313867)

张静初 Jingchu Zhang (id:1016668)

郭采洁 Amber Kuo (id:1274814)

张孝全 Joseph Chang (id:1014743)

樊光耀 Kuang-Yao Fan (id:1275301)

黎耀祥 Wayne Lai (id:1274440)

姜皓文 Philip Keung Ho-Man (id:1317884)

张兆辉 Siu-Fai Cheung (id:1005843)

巴图 Batu Ying (id:1315976)

陈海宁 Isabella Chan (id:1416838)

颜子菲 Belinda Yan (id:1359500)

李宗彥 Jason Li (id:1411001)

徐鸿 Xu Hong (id:1392419)

徐鸿 Xu Hong (id:1392419)

◎标 签 香港 / 动作 / 毫无逻辑可言,根本经不起推敲的烂片 / 犯罪 / 2016 / 剧情 / 浪费钱 / 悬疑

◎简 介

宗天保任职护卫员的科学园大火,他舍身救了女研究员高玉。但研究所潘教授在大火中不幸辞世,潘教授的手写笔记在大火中消失。大火引发了灰尘风暴,令整个香港被雾霾卷盖。

财阀王耀才投资的“天空一号”,让富人得以远离污染,而己故潘教授的助理唐永章变成他的合作伙伴,唐的发妻高玉继续在天空一号上钻研“超能干细胞”的“再生学”工作,完成潘教授的遗愿。从台湾来的家家带着癌症末期的妹妹小珍来香港求医,怎料两兄妹因此卷入一场“超能力干细胞”的劫案中,而偷走这新科研血清的主脑,竟是已故潘教授的独生子子文,在争夺血清的过程中,子文逐渐发现了令父亲潘教授死亡的真正凶手……

  1. ##### MediaInfo ######

  2. General

  3. Unique ID : 15598358526822683518642748847652387544 (0xBBC2273A38EEE01E3BB0022B754BAD8)

  4. Complete name : Sky.On.Fire.2016.1080p.BluRay.x265.10bit.DTS.2Audio-10017@BBQDDQ.COM.mkv

  5. Format : Matroska

  6. Format version : Version 4

  7. File size : 8.21 GiB

  8. Duration : 1 h 39 min

  9. Overall bit rate : 11.8 Mb/s

  10. Encoded date : UTC 2021-09-07 17:10:21

  11. Writing application : mkvmerge v61.0.0 ('So') 64-bit

  12. Writing library : libebml v1.4.2 + libmatroska v1.6.4

  13. Attachments : WenQuanWeiMiHei-1.ttf


  14. Video

  15. ID : 1

  16. Format : HEVC

  17. Format/Info : High Efficiency Video Coding

  18. Format profile : Main 10@L4@Main

  19. Codec ID : V_MPEGH/ISO/HEVC

  20. Duration : 1 h 39 min

  21. Bit rate : 8 756 kb/s

  22. Width : 1 920 pixels

  23. Height : 804 pixels

  24. Display aspect ratio : 2.40:1

  25. Frame rate mode : Constant

  26. Frame rate : 24.000 FPS

  27. Color space : YUV

  28. Chroma subsampling : 4:2:0

  29. Bit depth : 10 bits

  30. Bits/(Pixel*Frame) : 0.236

  31. Stream size : 6.10 GiB (74%)

  32. Writing library : x265 3.5+2-g2b25c9ba0+45:[Windows][GCC 10.2.0][64 bit] Yuuki 10bit+8bit+12bit

  33. Encoding settings : rc=crf / crf=17.5000 / qcomp=0.65 / qpstep=4 / stats-write=0 / stats-read=0 / no-lossless / no-cu-lossless / aq-mode=3 / aq-strength=0.80 / cbqpoffs=0 / crqpoffs=0 / ipratio=1.40 / pbratio=1.30 / psy-rd=2.00 / psy-rdoq=0.00 / deblock=0:0 / ref=6 / limit-refs=1 / no-limit-modes / bframes=8 / b-adapt=2 / bframe-bias=0 / b-pyramid / b-intra / weightp / weightb / min-keyint=24 / max-keyint=240 / rc-lookahead=24 / gop-lookahead=0 / NTMzNTQ=uuDQuD2mJt9fsCf / scenecut=40 / hist-scenecut=0 / radl=0 / max-cu-size=64 / min-cu-size=8 / me=3 / subme=7 / merange=48 / rdoq-level=0 / rd=4 / rdpenalty=0 / dynamic-rd=0.00 / no-rd-refine / ----- / cutree / sao / no-rect / no-amp / no-open-gop / wpp / no-pmode / pme / no-psnr / no-ssim / nr-intra=0 / nr-inter=0 / no-constrained-intra / no-strong-intra-smoothing / max-tu-size=32 / tu-inter-depth=1 / tu-intra-depth=1 / limit-tu=0 / qg-size=32 / qpmax=69 / qpmin=0 / ----- / cpuid=533541111039 / frame-threads=4 / numa-pools=+ / log-level=2 / input-csp=1 / input-res=1920x804 / interlace=0 / level-idc=0 / high-tier=1 / uhd-bd=0 / no-allow-non-conformance / no-repeat-headers / aud / no-hrd / info / hash=0 / no-temporal-layers / lookahead-slices=0 / no-splice / no-intra-refresh / no-ssim-rd / signhide / no-tskip / max-merge=3 / temporal-mvp / no-frame-dup / no-hme / no-analyze-src-pics / no-sao-non-deblock / selective-sao=4 / early-skip / rskip / no-fast-intra / no-tskip-fast / no-splitrd-skip / zone-count=0 / no-strict-cbr / no-rc-grain / no-const-vbv / sar=0 / overscan=0 / videoformat=5 / range=0 / colorprim=2 / transfer=2 / colormatrix=2 / chromaloc=0 / display-window=0 / cll=0,0 / min-luma=0 / max-luma=1023 / log2-max-poc-lsb=8 / vui-timing-info / vui-hrd-info / slices=1 / no-opt-qp-pps / no-opt-ref-list-length-pps / no-multi-pass-opt-rps / scenecut-bias=0.05 / hist-threshold=0.03 / no-opt-cu-delta-qp / no-aq-motion / no-hdr10 / no-hdr10-opt / no-dhdr10-opt / no-idr-recovery-sei / analysis-reuse-level=0 / analysis-save-reuse-level=0 / analysis-load-reuse-level=0 / scale-factor=0 / refine-intra=0 / refine-inter=0 / refine-mv=1 / refine-ctu-distortion=0 / no-limit-sao / ctu-info=0 / no-lowpass-dct / refine-analysis-type=0 / copy-pic=1 / max-ausize-factor=1.0 / no-dynamic-refine / no-single-sei / no-hevc-aq / no-svt / no-field / qp-adaptation-range=1.00 / scenecut-aware-qp=0conformance-window-offsets / right=0 / bottom=0 / NTMzNTQ= / decoder-max-rate=0 / no-vbv-live-multi-pass

  34. Default : Yes

  35. Forced : No


  36. Audio #1

  37. ID : 2

  38. Format : DTS

  39. Format/Info : Digital Theater Systems

  40. Codec ID : A_DTS

  41. Duration : 1 h 39 min

  42. Bit rate mode : Constant

  43. Bit rate : 1 510 kb/s

  44. Channel(s) : 6 channels

  45. Channel layout : C L R Ls Rs LFE

  46. Sampling rate : 48.0 kHz

  47. Frame rate : 93.750 FPS (512 SPF)

  48. Bit depth : 24 bits

  49. Compression mode : Lossy

  50. Stream size : 1.05 GiB (13%)

  51. Title : Mandarin

  52. Language : Chinese

  53. Default : Yes

  54. Forced : No


  55. Audio #2

  56. ID : 3

  57. Format : DTS

  58. Format/Info : Digital Theater Systems

  59. Codec ID : A_DTS

  60. Duration : 1 h 39 min

  61. Bit rate mode : Constant

  62. Bit rate : 1 510 kb/s

  63. Channel(s) : 6 channels

  64. Channel layout : C L R Ls Rs LFE

  65. Sampling rate : 48.0 kHz

  66. Frame rate : 93.750 FPS (512 SPF)

  67. Bit depth : 24 bits

  68. Compression mode : Lossy

  69. Stream size : 1.05 GiB (13%)

  70. Title : Cantonese

  71. Language : Chinese

  72. Default : No

  73. Forced : No


  74. Text #1

  75. ID : 4

  76. Format : ASS

  77. Codec ID : S_TEXT/ASS

  78. Codec ID/Info : Advanced Sub Station Alpha

  79. Duration : 1 h 35 min

  80. Bit rate : 55 b/s

  81. Count of elements : 973

  82. Compression mode : Lossless

  83. Stream size : 39.1 KiB (0%)

  84. Title : chs

  85. Language : Chinese

  86. Default : Yes

  87. Forced : No


  88. Text #2

  89. ID : 5

  90. Format : ASS

  91. Codec ID : S_TEXT/ASS

  92. Codec ID/Info : Advanced Sub Station Alpha

  93. Duration : 1 h 35 min

  94. Bit rate : 55 b/s

  95. Count of elements : 973

  96. Compression mode : Lossless

  97. Stream size : 39.1 KiB (0%)

  98. Title : cht

  99. Language : Chinese

  100. Default : No

  101. Forced : No


  102. Text #3

  103. ID : 6

  104. Format : PGS

  105. Muxing mode : zlib

  106. Codec ID : S_HDMV/PGS

  107. Codec ID/Info : Picture based subtitle format used on BDs/HD-DVDs

  108. Duration : 1 h 36 min

  109. Bit rate : 19.1 kb/s

  110. Count of elements : 1950

  111. Stream size : 13.1 MiB (0%)

  112. Title : eng

  113. Language : English

  114. Default : No

  115. Forced : No


  116. Menu

  117. 00:00:00.000 : Chapter 01

  118. 00:06:33.333 : Chapter 02

  119. 00:11:10.583 : Chapter 03

  120. 00:16:40.708 : Chapter 04

  121. 00:20:06.792 : Chapter 05

  122. 00:24:46.292 : Chapter 06

  123. 00:28:13.167 : Chapter 07

  124. 00:33:46.917 : Chapter 08

  125. 00:38:41.583 : Chapter 09

  126. 00:43:28.958 : Chapter 10

  127. 00:47:17.083 : Chapter 11

  128. 00:54:42.375 : Chapter 12

  129. 00:57:43.042 : Chapter 13

  130. 01:01:12.958 : Chapter 14

  131. 01:06:40.625 : Chapter 15

  132. 01:09:48.833 : Chapter 16

  133. 01:15:41.083 : Chapter 17

  134. 01:19:14.333 : Chapter 18

  135. 01:29:36.458 : Chapter 19

  136. 01:37:00.417 : Chapter 20


文件下载


除非特别注明,本文『冲天火[国粤语配音/中文字幕].Sky.On.Fire.2016.1080p.BluRay.x265.10bit.DTS.2Audio 8.21GB』来源于互联网机器人自动抓取,非本站原创。 浮游电影网不对本文拥有版权,如有侵犯,请联系邮箱:fuyouu#yandex.com[#换成@]投诉。我们会在15个工作日内删除。 但烦请转载时请标明出处:“本文转载于『浮游电影网』,原文地址:https://www.fuyouu.com/14259.html

评论吧骚年!

发表你的见解   

昵称*

E-mail*(建议输入,以便收到博主回复的提示邮件)

验证码*

您可以使用eMule或eMule Mod(Windows)、aMule(Win、Linux、Mac)等软件下载eD2k链接。。
eMule收藏集(.emulecollection)文件是您选中的所有链接的列表文件。eMule可以直接下载它们。
按住SHIFT键选择可以选中多个选择框。
可用文件名和大小选择器来选择文件。
文件名选择器帮您根据文件名称或后缀来选择文件。不分大小写。
符号使用:
和:空格( )、+
不包含:-
或:|
转义:一对英文引号("");
匹配开头:^
匹配结尾:$
例如:
选中所有名称中包含有“eMule”或“0.49c”字眼,但不包含有“exe”字眼的:emule|0.49c -exe
选中所有名称的开头是“eMule”,结尾是“0.49c”的:^emule 0.49c$
选中所有名称中带有“eMule 0.49c”的(必须是“eMule 0.49c”,中间没有别的字符,不能是“eMule fake 0.49c”),需要转义:"emule 0.49c"
大小选择器帮您根据文件大小选择文件。