当前位置: 首页 >> 日韩电影 >> 细雪[中文字幕].The.Makioka.Sisters.1983.1080p.BluRay.x265.10bit.FLAC 6.61GB >> 正文

细雪[中文字幕].The.Makioka.Sisters.1983.1080p.BluRay.x265.10bit.FLAC 6.61GB

2021年09月09日 08:23:36     电影发布:来源于网络     电影分类:日韩电影     评论(0)    

细雪[中文字幕].The.Makioka.Sisters.1983.1080p.BluRay.x265.10bit.FLAC 6.61GB 爱情片 剧情片 日韩电影  第1张

◎译 名 细雪 / The Makioka Sisters / Fine Snow

◎片 名 細雪

◎年 代 1983

◎产 地 日本

◎类 别 剧情 / 爱情

◎语 言 日语

◎上映日期 1983-05-21(日本)

◎IMDb链接 https://www.imdb.com/title/tt0086242/

◎豆瓣评分 8.1/10 (6496人评价)

◎豆瓣链接 https://movie.douban.com/subject/1299777/

◎片 长 140分钟

◎导 演 市川昆 Kon Ichikawa (id:1041592)

◎编 剧 谷崎润一郎 Junichir? Tanizaki (id:1025644)

市川昆 Kon Ichikawa (id:1041592)

日高真也 Shinya Hidaka (id:1321527)

和田夏十 Natto Wada (id:1052419)

◎演 员 岸惠子 Keiko Kishi (id:1023541)

佐久间良子 Yoshiko Sakuma (id:1035701)

吉永小百合 Sayuri Yoshinaga (id:1033094)

古手川祐子 Y?ko Kotegawa (id:1011725)

伊丹十三 Juzo Itami (id:1105862)

石坂浩二 K?ji Ishizaka (id:1109420)

细川俊之 Toshiyuki Hosokawa (id:1323580)

岸部一德 Ittoku Kishibe (id:1016878)

浜村淳 Jun Hamamura (id:1008310)

桥爪淳 Jun Hashizume (id:1027703)

小林昭二 Akiji Kobayashi (id:1051016)

小坂一也 Kazuya Kosaka (id:1021640)

三宅邦子 Kuniko Miyake (id:1051496)

根岸明美 Akemi Negishi (id:1001254)

仙道敦子 Nobuko Send? (id:1297210)

三条美纪 Miki Sanjo (id:1145356)

白石加代子 Kayoko Shiraishi (id:1039082)

横山道代 Michiyo Yokoyama (id:1004053)

辻万长 Kazunaga Tsuji (id:1007481)

常田富士男 Fujio Tokita (id:1008527)

头师孝雄 Takao Zushi (id:1013380)

上原由香里 Yukari Uehara (id:1013577)

市川昆 Kon Ichikawa (id:1041592)

田中友幸 Tomoyuki Tanaka (id:1054500)

渡边俊幸 Toshiyuki Watanabe (id:1006417)

Kiyoshi Hasegawa Kiyoshi Hasegawa (id:1286194)

长田千鹤子 Chizuko Osada (id:1293668)

村木忍 Shinobu Muraki (id:1053793)

◎标 签 日本 / 市川昆 / 日本电影 / 吉永小百合 / 文艺 / 细雪 / 1983 / 经典

◎简 介

随着新时代的来临,曾一度显赫的京都蒔冈家慢慢开始衰败,而家中的四个女儿却仍是城中一道美丽的风景。大姐鹤子(岸恵子 饰)固守祖屋,时刻维护着家族的声誉;二姐幸子(佐久间良子 饰)性格刚烈强势,使得上门女婿贞之助(石坂浩二 饰)相形见绌;老三雪子(吉永小百合 饰)温柔贤淑,然对于自己的婚事却总迟迟未决;老四妙子(古手川祐子 饰)个性张扬开放,是一个比较西化的女孩。

妙子的绯闻闹得满城风雨,烦恼的鹤子和家人商量,决定尽早为雪子找到如意郎君,以维护门风。不过说起来容易,一向沉默不语的雪子却接连回绝了数门婚事,这倒让欣赏雪子的贞之助暗暗欢喜……

改编自谷崎润一郎同名小说,东宝映画50周年纪念作品。

◎获奖情况 (共1项)

第40届威尼斯电影节 (1983)

主竞赛单元 金狮奖 (提名)

└──市川昆 (id:1041592)

  1. ##### MediaInfo ######

  2. General

  3. Unique ID : 18472274023736121167728593862887840795 (0xDE5A16CECF96D0D7B472CEAB2D19C1B)

  4. Complete name : The Makioka Sisters 1983 1080p Blu-ray x265 10bit FLAC-10017@BBQDDQ.COM.mkv

  5. Format : Matroska

  6. Format version : Version 4

  7. File size : 6.61 GiB

  8. Duration : 2 h 20 min

  9. Overall bit rate mode : Variable

  10. Overall bit rate : 6 727 kb/s

  11. Encoded date : UTC 2021-09-07 13:46:58

  12. Writing application : mkvmerge v60.0.0 ('Are We Copies?') 64-bit

  13. Writing library : libebml v1.4.2 + libmatroska v1.6.4


  14. Video

  15. ID : 1

  16. Format : HEVC

  17. Format/Info : High Efficiency Video Coding

  18. Format profile : Main 10@L5@Main

  19. Codec ID : V_MPEGH/ISO/HEVC

  20. Duration : 2 h 20 min

  21. Bit rate : 6 131 kb/s

  22. Width : 1 920 pixels

  23. Height : 1 016 pixels

  24. Display aspect ratio : 1.890

  25. Frame rate mode : Constant

  26. Frame rate : 23.976 (24000/1001/53354) FPS

  27. Color space : YUV

  28. Chroma subsampling : 4:2:0

  29. Bit depth : 10 bits

  30. Bits/(Pixel*Frame) : 0.131

  31. Stream size : 6.02 GiB (91%)

  32. Writing library : x265 3.5+2-g2b25c9ba0+45:[Windows][GCC 10.2.0][64 bit] Yuuki 10bit+8bit+12bit

  33. Encoding settings : rc=crf / crf=22.0000 / qcomp=0.60 / qpstep=4 / stats-write=0 / stats-read=0 / no-lossless / no-cu-lossless / aq-mode=3 / aq-strength=0.70 / cbqpoffs=0 / crqpoffs=0 / ipratio=1.40 / pbratio=1.30 / psy-rd=2.00 / psy-rdoq=0.00 / deblock=0:0 / ref=6 / limit-refs=1 / no-limit-modes / bframes=8 / b-adapt=2 / bframe-bias=0 / b-pyramid / b-intra / weightp / weightb / min-keyint=24 / max-keyint=240 / rc-lookahead=24 / gop-lookahead=0 / NTMzNTQ=uuDQuD2mJt9fsCf / scenecut=40 / hist-scenecut=0 / radl=0 / max-cu-size=64 / min-cu-size=8 / me=3 / subme=7 / merange=48 / rdoq-level=0 / rd=4 / rdpenalty=0 / dynamic-rd=0.00 / no-rd-refine / ----- / cutree / sao / no-rect / no-amp / no-open-gop / wpp / no-pmode / no-pme / no-psnr / no-ssim / nr-intra=0 / nr-inter=0 / no-constrained-intra / no-strong-intra-smoothing / max-tu-size=32 / tu-inter-depth=1 / tu-intra-depth=1 / limit-tu=0 / qg-size=32 / qpmax=69 / qpmin=0 / ----- / cpuid=533541111039 / frame-threads=4 / numa-pools=+ / log-level=2 / input-csp=1 / input-res=1920x1016 / interlace=0 / level-idc=0 / high-tier=1 / uhd-bd=0 / no-allow-non-conformance / no-repeat-headers / aud / no-hrd / info / hash=0 / no-temporal-layers / lookahead-slices=6 / no-splice / no-intra-refresh / no-ssim-rd / signhide / no-tskip / max-merge=3 / temporal-mvp / no-frame-dup / no-hme / no-analyze-src-pics / no-sao-non-deblock / selective-sao=4 / early-skip / rskip / no-fast-intra / no-tskip-fast / no-splitrd-skip / zone-count=0 / no-strict-cbr / no-rc-grain / no-const-vbv / sar=0 / overscan=0 / videoformat=5 / range=0 / colorprim=2 / transfer=2 / colormatrix=2 / chromaloc=0 / display-window=0 / cll=0,0 / min-luma=0 / max-luma=1023 / log2-max-poc-lsb=8 / vui-timing-info / vui-hrd-info / slices=1 / no-opt-qp-pps / no-opt-ref-list-length-pps / no-multi-pass-opt-rps / scenecut-bias=0.05 / hist-threshold=0.03 / no-opt-cu-delta-qp / no-aq-motion / no-hdr10 / no-hdr10-opt / no-dhdr10-opt / no-idr-recovery-sei / analysis-reuse-level=0 / analysis-save-reuse-level=0 / analysis-load-reuse-level=0 / scale-factor=0 / refine-intra=0 / refine-inter=0 / refine-mv=1 / refine-ctu-distortion=0 / no-limit-sao / ctu-info=0 / no-lowpass-dct / refine-analysis-type=0 / copy-pic=1 / max-ausize-factor=1.0 / no-dynamic-refine / no-single-sei / no-hevc-aq / no-svt / no-field / qp-adaptation-range=1.00 / scenecut-aware-qp=0conformance-window-offsets / right=0 / bottom=0 / NTMzNTQ= / decoder-max-rate=0 / no-vbv-live-multi-pass

  34. Language : English

  35. Default : Yes

  36. Forced : No


  37. Audio

  38. ID : 2

  39. Format : FLAC

  40. Format/Info : Free Lossless Audio Codec

  41. Codec ID : A_FLAC

  42. Duration : 2 h 20 min

  43. Bit rate mode : Variable

  44. Bit rate : 556 kb/s

  45. Channel(s) : 1 channel

  46. Sampling rate : 48.0 kHz

  47. Frame rate : 11.719 FPS (4096 SPF)

  48. Bit depth : 24 bits

  49. Compression mode : Lossless

  50. Stream size : 560 MiB (8%)

  51. Title : 日语

  52. Writing library : libFLAC 1.2.1 (UTC 2007-09-17)

  53. Language : Japanese

  54. Default : Yes

  55. Forced : No


  56. Text #1

  57. ID : 3

  58. Format : PGS

  59. Muxing mode : zlib

  60. Codec ID : S_HDMV/PGS

  61. Codec ID/Info : Picture based subtitle format used on BDs/HD-DVDs

  62. Duration : 2 h 16 min

  63. Bit rate : 19.8 kb/s

  64. Count of elements : 3654

  65. Stream size : 19.4 MiB (0%)

  66. Title : chs

  67. Language : Chinese

  68. Default : Yes

  69. Forced : No


  70. Text #2

  71. ID : 4

  72. Format : PGS

  73. Muxing mode : zlib

  74. Codec ID : S_HDMV/PGS

  75. Codec ID/Info : Picture based subtitle format used on BDs/HD-DVDs

  76. Duration : 2 h 16 min

  77. Bit rate : 20.0 kb/s

  78. Count of elements : 3654

  79. Stream size : 19.6 MiB (0%)

  80. Title : cht

  81. Language : Chinese

  82. Default : Yes

  83. Forced : No


  84. Text #3

  85. ID : 5

  86. Format : PGS

  87. Muxing mode : zlib

  88. Codec ID : S_HDMV/PGS

  89. Codec ID/Info : Picture based subtitle format used on BDs/HD-DVDs

  90. Duration : 2 h 19 min

  91. Bit rate : 39.1 kb/s

  92. Count of elements : 3702

  93. Stream size : 39.1 MiB (1%)

  94. Title : eng

  95. Language : English

  96. Default : Yes

  97. Forced : No



文件下载


除非特别注明,本文『细雪[中文字幕].The.Makioka.Sisters.1983.1080p.BluRay.x265.10bit.FLAC 6.61GB』来源于互联网机器人自动抓取,非本站原创。 浮游电影网不对本文拥有版权,如有侵犯,请联系邮箱:fuyouu#yandex.com[#换成@]投诉。我们会在15个工作日内删除。 但烦请转载时请标明出处:“本文转载于『浮游电影网』,原文地址:https://www.fuyouu.com/14257.html

评论吧骚年!

发表你的见解   

昵称*

E-mail*(建议输入,以便收到博主回复的提示邮件)

验证码*

您可以使用eMule或eMule Mod(Windows)、aMule(Win、Linux、Mac)等软件下载eD2k链接。。
eMule收藏集(.emulecollection)文件是您选中的所有链接的列表文件。eMule可以直接下载它们。
按住SHIFT键选择可以选中多个选择框。
可用文件名和大小选择器来选择文件。
文件名选择器帮您根据文件名称或后缀来选择文件。不分大小写。
符号使用:
和:空格( )、+
不包含:-
或:|
转义:一对英文引号("");
匹配开头:^
匹配结尾:$
例如:
选中所有名称中包含有“eMule”或“0.49c”字眼,但不包含有“exe”字眼的:emule|0.49c -exe
选中所有名称的开头是“eMule”,结尾是“0.49c”的:^emule 0.49c$
选中所有名称中带有“eMule 0.49c”的(必须是“eMule 0.49c”,中间没有别的字符,不能是“eMule fake 0.49c”),需要转义:"emule 0.49c"
大小选择器帮您根据文件大小选择文件。