当前位置: 首页 >> 日韩电影 >> 复仇在我[中文字幕].Vengeance.Is.Mine.1979.BluRay.1080p.x265.10bit.MNHD 8.06GB >> 正文

复仇在我[中文字幕].Vengeance.Is.Mine.1979.BluRay.1080p.x265.10bit.MNHD 8.06GB

2021年09月07日 22:07:05     电影发布:来源于网络     电影分类:日韩电影     评论(0)    

image.png

◎译 名 复仇在我 / 我要复仇 / Vengeance Is Mine

◎片 名 復讐するは我にあり

◎年 代 1979

◎产 地 日本

◎类 别 剧情 / 犯罪

◎语 言 日语 / 英语

◎上映日期 1979-04-21(日本)

◎IMDb链接 https://www.imdb.com/title/tt0079182/

◎豆瓣评分 8.4/10 (8568人评价)

◎豆瓣链接 https://movie.douban.com/subject/1294940/

◎片 长 140分钟

◎导 演 今村昌平 Shohei Imamura (id:1050213)

◎编 剧 马场当 Masaru Baba (id:1277635)

佐木隆三 Ryuzo Saki (id:1144723)

◎演 员 绪形拳 Ken Ogata (id:1009942)

三国连太郎 Rentar? Mikuni (id:1119854)

日向铃子 Chocho Miyako (id:1011880)

倍赏美津子 Mitsuko Baisho (id:1042205)

根岸季衣 Toshie Negishi (id:1008299)

小川真由美 Mayumi Ogawa (id:1029274)

清川虹子 Nijiko Kiyokawa (id:1039110)

绘泽萠子 Moeko Ezawa (id:1003924)

白川和子 Kazuko Shirakawa (id:1051431)

殿山泰司 Taiji Tonoyama (id:1029580)

弗兰克堺 Frankie Sakai (id:1008081)

平田昭彦 Torahiko Hamada (id:1053721)

辻万长 Kazunaga Tsuji (id:1007481)

北村和夫 Kazuo Kitamura (id:1033693)

火野正平 Sh?hei Hino (id:1100355)

河原崎长一郎 Choichiro Kawarazaki (id:1103784)

菅井琴 Kin Sugai (id:1034236)

石堂淑朗 Toshir? Ishid? (id:1011515)

加藤嘉 Yoshi Kat? (id:1107157)

梅津荣 Sakae Umezu (id:1013228)

中村美代子 Miyoko Nakamura (id:1007830)

桂玉木 Tamaki Katsura (id:1343431)

铃木正幸 Masayuki Suzuki (id:1367966)

西尾麻里 Mari Nishio (id:1003034)

大方斐纱子 Hisako Ohkata (id:1386968)

池辺晋一郎 Shinichir? Ikebe (id:1287289)

原一男 Kazuo Hara (id:1096193)

浦岡敬一 Keiichi Uraoka (id:1299743)

◎标 签 今村昌平 / 日本 / 犯罪 / 日本电影 / 1979 / 黑色 / 绪形拳 / 1970s

◎简 介

警车上,落网的连续杀人犯槚津严(绪形拳 饰)神态轻松,并在后来的审讯中拒不交代杀死职员柴田与马场的经过……槚津严出身于信奉天主教的渔民家庭,由于宗教歧视,严家的小船被没收,年幼的严试图反抗却被父亲制止,由此父亲丧失了在严心目中的地位。青年严因偷窃美军设备出狱后与加津子奉子成婚,然而很快又因诈骗入狱。父亲为阻止加津子离婚登门拜访,谁知两人却发生了不伦的关系,再次出狱的严不齿妻子与父亲所为,离家出走,从此开始了伴随杀人与诈骗的流浪旅程。严乔装大学教授与旅馆中的暗娼交好,间歇时仍然犯下累累罪行,而此时与他共居的母子二人,并不知晓身边人是日本知名的通缉犯……

本片获1979年日本《电影旬报》十佳电影第一名。

◎获奖情况 (共2项)

第4届报知映画赏 (1979)

最佳男配角

└──三国连太郎 (id:1119854)

最佳女配角

└──小川真由美 (id:1029274)

  1. ##### MediaInfo ######

  2. General

  3. Unique ID : 38685325929304688228631825106447789451 (0x1D1A85D3B3A7C6CED92B6517F10E6D8B)

  4. Complete name : Vengeance.Is.Mine.1979.BluRay.1080p.x265.10bit.MNHD-10018@BBQDDQ.COM.mkv

  5. Format : Matroska

  6. Format version : Version 4

  7. File size : 8.06 GiB

  8. Duration : 2 h 20 min

  9. Overall bit rate : 8 199 kb/s

  10. Encoded date : UTC 2021-09-04 21:35:02

  11. Writing application : mkvmerge v46.0.0 ('No Deeper Escape') 64-bit

  12. Writing library : libebml v1.3.10 + libmatroska v1.5.2


  13. Video

  14. ID : 1

  15. Format : HEVC

  16. Format/Info : High Efficiency Video Coding

  17. Format profile : Main 10@L5.1@High

  18. Codec ID : V_MPEGH/ISO/HEVC

  19. Duration : 2 h 20 min

  20. Bit rate : 7 723 kb/s

  21. Width : 1 796 pixels

  22. Height : 1 080 pixels

  23. Display aspect ratio : 5:3

  24. Frame rate mode : Constant

  25. Frame rate : 23.976 (24000/1001/53354) FPS

  26. Color space : YUV

  27. Chroma subsampling : 4:2:0

  28. Bit depth : 10 bits

  29. Bits/(Pixel*Frame) : 0.166

  30. Stream size : 7.59 GiB (94%)

  31. Default : Yes

  32. Forced : No


  33. Audio #1

  34. ID : 2

  35. Format : AAC LC

  36. Format/Info : Advanced Audio Codec Low Complexity

  37. Codec ID : A_AAC-2

  38. Duration : 2 h 20 min

  39. Bit rate : 281 kb/s

  40. Channel(s) : 1 channel

  41. Channel layout : C

  42. Sampling rate : 48.0 kHz

  43. Frame rate : 46.875 FPS (1024 SPF)

  44. Compression mode : Lossy

  45. Delay relative to video : 9 ms

  46. Stream size : 283 MiB (3%)

  47. Language : Japanese

  48. Default : Yes

  49. Forced : No


  50. Audio #2

  51. ID : 3

  52. Format : AC-3

  53. Format/Info : Audio Coding 3

  54. Commercial name : Dolby Digital

  55. Codec ID : A_AC3

  56. Duration : 2 h 20 min

  57. Bit rate mode : Constant

  58. Bit rate : 192 kb/s

  59. Channel(s) : 1 channel

  60. Channel layout : C

  61. Sampling rate : 48.0 kHz

  62. Frame rate : 31.250 FPS (1536 SPF)

  63. Compression mode : Lossy

  64. Stream size : 193 MiB (2%)

  65. Title : Commentary by critic Tony Rayns

  66. Language : English

  67. Service kind : Complete Main

  68. Default : No

  69. Forced : No


  70. Text #1

  71. ID : 4

  72. Format : UTF-8

  73. Codec ID : S_TEXT/UTF8

  74. Codec ID/Info : UTF-8 Plain Text

  75. Duration : 2 h 17 min

  76. Bit rate : 32 b/s

  77. Count of elements : 1347

  78. Stream size : 33.2 KiB (0%)

  79. Language : Chinese

  80. Default : Yes

  81. Forced : No


  82. Text #2

  83. ID : 5

  84. Format : ASS

  85. Codec ID : S_TEXT/ASS

  86. Codec ID/Info : Advanced Sub Station Alpha

  87. Duration : 2 h 17 min

  88. Bit rate : 138 b/s

  89. Count of elements : 1357

  90. Compression mode : Lossless

  91. Stream size : 139 KiB (0%)

  92. Language : English

  93. Default : No

  94. Forced : No


  95. Menu

  96. 00:00:00.000 : :00:00:00.000

  97. 00:04:22.095 : :00:04:22.095

  98. 00:19:37.802 : :00:19:37.802

  99. 00:23:32.453 : :00:23:32.453

  100. 00:26:44.561 : :00:26:44.561

  101. 00:33:33.678 : :00:33:33.678

  102. 00:39:09.305 : :00:39:09.305

  103. 00:48:40.334 : :00:48:40.334

  104. 00:59:36.698 : :00:59:36.698

  105. 01:09:58.611 : :01:09:58.611

  106. 01:19:00.110 : :01:19:00.110

  107. 01:24:15.968 : :01:24:15.968

  108. 01:29:58.268 : :01:29:58.268

  109. 01:34:28.538 : :01:34:28.538

  110. 01:43:02.718 : :01:43:02.718

  111. 01:48:14.655 : :01:48:14.655

  112. 01:55:00.560 : :01:55:00.560

  113. 02:02:56.536 : :02:02:56.536

  114. 02:09:02.693 : :02:09:02.693

  115. 02:14:09.416 : :02:14:09.416


文件下载


除非特别注明,本文『复仇在我[中文字幕].Vengeance.Is.Mine.1979.BluRay.1080p.x265.10bit.MNHD 8.06GB』来源于互联网机器人自动抓取,非本站原创。 浮游电影网不对本文拥有版权,如有侵犯,请联系邮箱:fuyouu#yandex.com[#换成@]投诉。我们会在15个工作日内删除。 但烦请转载时请标明出处:“本文转载于『浮游电影网』,原文地址:https://www.fuyouu.com/14251.html

评论吧骚年!

发表你的见解   

昵称*

E-mail*(建议输入,以便收到博主回复的提示邮件)

验证码*

您可以使用eMule或eMule Mod(Windows)、aMule(Win、Linux、Mac)等软件下载eD2k链接。。
eMule收藏集(.emulecollection)文件是您选中的所有链接的列表文件。eMule可以直接下载它们。
按住SHIFT键选择可以选中多个选择框。
可用文件名和大小选择器来选择文件。
文件名选择器帮您根据文件名称或后缀来选择文件。不分大小写。
符号使用:
和:空格( )、+
不包含:-
或:|
转义:一对英文引号("");
匹配开头:^
匹配结尾:$
例如:
选中所有名称中包含有“eMule”或“0.49c”字眼,但不包含有“exe”字眼的:emule|0.49c -exe
选中所有名称的开头是“eMule”,结尾是“0.49c”的:^emule 0.49c$
选中所有名称中带有“eMule 0.49c”的(必须是“eMule 0.49c”,中间没有别的字符,不能是“eMule fake 0.49c”),需要转义:"emule 0.49c"
大小选择器帮您根据文件大小选择文件。