当前位置: 首页 >> 海外电影 >> 秘密的阴谋[中文字幕].Secret.Defense.1998.1080p.BluRay.x265.10bit.FLAC.MNHD 9.01GB >> 正文

秘密的阴谋[中文字幕].Secret.Defense.1998.1080p.BluRay.x265.10bit.FLAC.MNHD 9.01GB

2021年09月07日 22:05:54     电影发布:来源于网络     电影分类:海外电影     评论(0)    

秘密的阴谋[中文字幕].Secret.Defense.1998.1080p.BluRay.x265.10bit.FLAC.MNHD 9.01GB 犯罪片 剧情片 海外电影  第1张

◎译 名 秘密的阴谋 / Secret Defense

◎片 名 Secret défense

◎年 代 1998

◎产 地 法国

◎类 别 剧情 / 犯罪

◎语 言 法语

◎上映日期 1998-03-18

◎IMDb链接 https://www.imdb.com/title/tt0120665/

◎豆瓣评分 6.8/10 (200人评价)

◎豆瓣链接 https://movie.douban.com/subject/1419864/

◎片 长 170 分钟

◎导 演 雅克·里维特 Jacques Rivette (id:1032390)

◎编 剧 帕斯卡尔·博尼策尔 Pascal Bonitzer (id:1008148)

埃曼纽尔·库 Emmanuelle Cuau (id:1281562)

雅克·里维特 Jacques Rivette (id:1032390)

◎演 员 桑德里娜·博内尔 Sandrine Bonnaire (id:1018278)

弗兰西丝·法比安 Fran?oise Fabian (id:1048370)

格莱戈尔·科林 Grégoire Colin (id:1077830)

耶日·拉齐维沃维奇 Jerzy Radziwilowicz (id:1145651)

洛尔·玛尔萨克 Laure Marsac (id:1005189)

Jordi Savall Jordi Savall (id:1296760)

威廉·吕伯康斯基 William Lubtchansky (id:1042071)

◎标 签 法国 / Jacques_Rivette / JacquesRivette / 法国电影 / 雅克·里维特 / 1998 / 1990s / Jacques.Rivette

◎简 介

女主角西尔维是一个年轻的科学家,父亲五年前从火车上跌落而死。她兄弟保罗告诉她父亲是被他的左右手瓦尔瑟暗害的,如今瓦尔瑟是父亲生前那家高科技公司的总裁。西尔维一方面需要拯救她的兄弟,另一方面决定亲自杀死瓦尔瑟以报复。

  1. ##### MediaInfo ######

  2. General

  3. Unique ID : 281308415402345322980242510463178992467 (0xD3A207B3878191C38891E7D215296B53)

  4. Complete name : Secret.Defense.1998.1080p.BluRay.x265.10bit.FLAC.MNHD-10018@BBQDDQ.COM.mkv

  5. Format : Matroska

  6. Format version : Version 4

  7. File size : 9.00 GiB

  8. Duration : 2 h 53 min

  9. Overall bit rate mode : Variable

  10. Overall bit rate : 7 429 kb/s

  11. Movie name : Secret.Defense.1998.1080p.BluRay.x265.10bit.FLAC.MNHD-10018@BBQDDQ.COM

  12. Encoded date : UTC 2021-09-06 15:21:22

  13. Writing application : mkvmerge v53.0.0 ('Fool's Gold') 64-bit

  14. Writing library : libebml v1.4.1 + libmatroska v1.6.2


  15. Video

  16. ID : 1

  17. Format : HEVC

  18. Format/Info : High Efficiency Video Coding

  19. Format profile : Main 10@L5.1@High

  20. Codec ID : V_MPEGH/ISO/HEVC

  21. Duration : 2 h 53 min

  22. Bit rate : 7 087 kb/s

  23. Width : 1 920 pixels

  24. Height : 1 036 pixels

  25. Display aspect ratio : 1.85:1

  26. Frame rate mode : Constant

  27. Frame rate : 24.000 FPS

  28. Color space : YUV

  29. Chroma subsampling : 4:2:0

  30. Bit depth : 10 bits

  31. Bits/(Pixel*Frame) : 0.148

  32. Stream size : 8.59 GiB (95%)

  33. Writing library : x265 3.5+1-f0c1022b6:[Linux][GCC 9.3.0][64 bit] 10bit

  34. Encoding settings : cpuid=533541111039 / frame-threads=3 / numa-pools=11 / wpp / pmode / no-pme / no-psnr / no-ssim / log-level=2 / input-csp=1 / input-res=1920x1036 / interlace=0 / total-frames=249867 / level-idc=0 / high-tier=1 / uhd-bd=0 / ref=4 / no-allow-non-conformance / no-repeat-headers / annexb / no-aud / no-hrd / info / hash=0 / no-temporal-layers / no-open-gop / min-keyint=1 / keyint=250 / gop-lookahead=0 / bframes=6 / b-adapt=2 / b-pyramid / bframe-bias=0 / rc-lookahead=80 / lookahead-slices=0 / NTMzNTQ=uuDQuD2mJt9fsCf / scenecut=40 / hist-scenecut=0 / radl=0 / no-splice / no-intra-refresh / ctu=32 / min-cu-size=8 / no-rect / no-amp / max-tu-size=32 / tu-inter-depth=4 / tu-intra-depth=4 / limit-tu=0 / rdoq-level=2 / dynamic-rd=0.00 / no-ssim-rd / signhide / no-tskip / nr-intra=0 / nr-inter=0 / no-constrained-intra / strong-intra-smoothing / max-merge=5 / limit-refs=0 / no-limit-modes / me=3 / subme=7 / merange=57 / temporal-mvp / no-frame-dup / no-hme / weightp / weightb / no-analyze-src-pics / deblock=-3:-3 / no-sao / no-sao-non-deblock / rd=4 / selective-sao=0 / no-early-skip / no-rskip / no-fast-intra / no-tskip-fast / no-cu-lossless / b-intra / no-splitrd-skip / rdpenalty=0 / psy-rd=1.50 / psy-rdoq=1.00 / no-rd-refine / no-lossless / cbqpoffs=-2 / crqpoffs=-2 / rc=crf / crf=23.2 / qcomp=0.65 / qpstep=4 / stats-write=0 / stats-read=0 / vbv-maxrate=160000 / vbv-bufsize=160000 / vbv-init=0.9 / min-vbv-fullness=50.0 / max-vbv-fullness=80.0 / crf-max=0.0 / crf-min=0.0 / ipratio=1.30 / pbratio=1.20 / aq-mode=1 / aq-strength=1.00 / no-cutree / zone-count=0 / no-strict-cbr / qg-size=8 / no-rc-grain / qpmax=69 / qpmin=0 / no-const-vbv / sar=0 / overscan=0 / videoformat=5 / range=0 / colorprim=1 / transfer=1 / colormatrix=1 / chromaloc=0 / display-window=0 / cll=0,0 / min-luma=0 / max-luma=1023 / log2-max-poc-lsb=8 / vui-timing-info / vui-hrd-info / slices=1 / no-opt-qp-pps / no-opt-ref-list-length-pps / no-multi-pass-opt-rps / scenecut-bias=0.05 / hist-threshold=0.03 / no-opt-cu-delta-qp / no-aq-motion / no-hdr10 / no-hdr10-opt / no-dhdr10-opt / no-idr-recovery-sei / analysis-reuse-level=0 / analysis-save-reuse-level=0 / analysis-load-reuse-level=0 / scale-factor=0 / refine-intra=0 / refine-inter=0 / refine-mv=1 / refine-ctu-distortion=0 / no-limit-sao / ctu-info=0 / no-lowpass-dct / refine-analysis-type=0 / copy-pic=1 / max-ausize-factor=1.0 / no-dynamic-refine / no-single-sei / no-hevc-aq / no-svt / no-field / qp-adaptation-range=1.00 / scenecut-aware-qp=0conformance-window-offsets / right=0 / bottom=0 / NTMzNTQ= / decoder-max-rate=0 / no-vbv-live-multi-pass

  35. Default : Yes

  36. Forced : No

  37. Color range : Limited

  38. Color primaries : BT.709

  39. Transfer characteristics : BT.709

  40. Matrix coefficients : BT.709


  41. Audio

  42. ID : 2

  43. Format : FLAC

  44. Format/Info : Free Lossless Audio Codec

  45. Codec ID : A_FLAC

  46. Duration : 2 h 53 min

  47. Bit rate mode : Variable

  48. Bit rate : 340 kb/s

  49. Channel(s) : 2 channels

  50. Channel layout : L R

  51. Sampling rate : 48.0 kHz

  52. Frame rate : 11.719 FPS (4096 SPF)

  53. Bit depth : 16 bits

  54. Compression mode : Lossless

  55. Stream size : 422 MiB (5%)

  56. Writing library : libFLAC 1.2.1 (UTC 2007-09-17)

  57. Language : French

  58. Default : Yes

  59. Forced : No


  60. Text #1

  61. ID : 3

  62. Format : UTF-8

  63. Codec ID : S_TEXT/UTF8

  64. Codec ID/Info : UTF-8 Plain Text

  65. Duration : 2 h 51 min

  66. Bit rate : 30 b/s

  67. Count of elements : 1446

  68. Stream size : 38.9 KiB (0%)

  69. Title : Chs

  70. Language : Chinese

  71. Default : Yes

  72. Forced : No


  73. Text #2

  74. ID : 4

  75. Format : UTF-8

  76. Codec ID : S_TEXT/UTF8

  77. Codec ID/Info : UTF-8 Plain Text

  78. Duration : 2 h 51 min

  79. Bit rate : 30 b/s

  80. Count of elements : 1446

  81. Stream size : 38.9 KiB (0%)

  82. Title : Cht

  83. Language : Chinese

  84. Default : No

  85. Forced : No


  86. Text #3

  87. ID : 5

  88. Format : UTF-8

  89. Codec ID : S_TEXT/UTF8

  90. Codec ID/Info : UTF-8 Plain Text

  91. Duration : 2 h 51 min

  92. Bit rate : 65 b/s

  93. Count of elements : 1460

  94. Stream size : 82.0 KiB (0%)

  95. Title : Chs

  96. Language : Chinese

  97. Default : No

  98. Forced : No


  99. Text #4

  100. ID : 6

  101. Format : UTF-8

  102. Codec ID : S_TEXT/UTF8

  103. Codec ID/Info : UTF-8 Plain Text

  104. Duration : 2 h 51 min

  105. Bit rate : 65 b/s

  106. Count of elements : 1460

  107. Stream size : 82.0 KiB (0%)

  108. Title : Cht

  109. Language : Chinese

  110. Default : No

  111. Forced : No


  112. Text #5

  113. ID : 7

  114. Format : UTF-8

  115. Codec ID : S_TEXT/UTF8

  116. Codec ID/Info : UTF-8 Plain Text

  117. Duration : 2 h 51 min

  118. Bit rate : 32 b/s

  119. Count of elements : 1460

  120. Stream size : 40.3 KiB (0%)

  121. Title : Eng

  122. Language : English

  123. Default : No

  124. Forced : No


  125. Menu

  126. 00:00:00.000 : en:Chapter 01

  127. 00:13:36.042 : en:Chapter 02

  128. 00:26:16.458 : en:Chapter 03

  129. 00:37:32.917 : en:Chapter 04

  130. 00:46:20.417 : en:Chapter 05

  131. 01:01:56.667 : en:Chapter 06

  132. 01:16:30.250 : en:Chapter 07

  133. 01:30:52.000 : en:Chapter 08

  134. 01:46:28.375 : en:Chapter 09

  135. 02:01:03.542 : en:Chapter 10

  136. 02:15:08.417 : en:Chapter 11

  137. 02:32:28.042 : en:Chapter 12



文件下载


除非特别注明,本文『秘密的阴谋[中文字幕].Secret.Defense.1998.1080p.BluRay.x265.10bit.FLAC.MNHD 9.01GB』来源于互联网机器人自动抓取,非本站原创。 浮游电影网不对本文拥有版权,如有侵犯,请联系邮箱:fuyouu#yandex.com[#换成@]投诉。我们会在15个工作日内删除。 但烦请转载时请标明出处:“本文转载于『浮游电影网』,原文地址:https://www.fuyouu.com/14250.html

评论吧骚年!

发表你的见解   

昵称*

E-mail*(建议输入,以便收到博主回复的提示邮件)

验证码*

您可以使用eMule或eMule Mod(Windows)、aMule(Win、Linux、Mac)等软件下载eD2k链接。。
eMule收藏集(.emulecollection)文件是您选中的所有链接的列表文件。eMule可以直接下载它们。
按住SHIFT键选择可以选中多个选择框。
可用文件名和大小选择器来选择文件。
文件名选择器帮您根据文件名称或后缀来选择文件。不分大小写。
符号使用:
和:空格( )、+
不包含:-
或:|
转义:一对英文引号("");
匹配开头:^
匹配结尾:$
例如:
选中所有名称中包含有“eMule”或“0.49c”字眼,但不包含有“exe”字眼的:emule|0.49c -exe
选中所有名称的开头是“eMule”,结尾是“0.49c”的:^emule 0.49c$
选中所有名称中带有“eMule 0.49c”的(必须是“eMule 0.49c”,中间没有别的字符,不能是“eMule fake 0.49c”),需要转义:"emule 0.49c"
大小选择器帮您根据文件大小选择文件。