当前位置: 首页 >> 欧美电影 >> 那山那人那狗[国语音轨/中文字幕].Postmen.in.the.Mountains.1999.1080p.BluRay.x265.10bit.AC3.MNHD 5.24GB >> 正文

那山那人那狗[国语音轨/中文字幕].Postmen.in.the.Mountains.1999.1080p.BluRay.x265.10bit.AC3.MNHD 5.24GB

2021年09月07日 22:04:12     电影发布:来源于网络     电影分类:欧美电影     评论(0)    

那山那人那狗[国语音轨/中文字幕].Postmen.in.the.Mountains.1999.1080p.BluRay.x265.10bit.AC3.MNHD 5.24GB 家庭片 剧情片 欧美电影  第1张

◎译 名 那山那人那狗 / 那山、那人、那狗 / 那山,那人,那狗 / Postmen In The Mountains

◎年 代 1999

◎产 地 中国大陆

◎类 别 剧情 / 家庭

◎语 言 汉语普通话

◎上映日期 1999(中国大陆) / 2001-04-07(日本)

◎IMDb链接 https://www.imdb.com/title/tt0210916/

◎豆瓣评分 8.7/10 (98005人评价)

◎豆瓣链接 https://movie.douban.com/subject/1307766/

◎片 长 93分钟

◎导 演 霍建起 Jianqi Huo (id:1006351)

◎编 剧 思芜 Wu Si (id:1306547)

◎演 员 滕汝骏 Rujun Teng (id:1299044)

刘烨 Ye Liu (id:1000572)

赵秀丽 Xiuli Zhao (id:1332569)

陈好 Hao Chen (id:1037748)

龚业珩 Yeheng Gong (id:1319377)

党浩予 Haoyu Dang (id:1313612)

康健民 Jianmin Kang (id:1423636)

◎标 签 亲情 / 父子 / 温情 / 文艺 / 剧情 / 家庭 / 中国大陆 / 成长

◎简 介

儿子(刘烨)高考落榜不得已回到大山中的家后,做了大半辈子山村邮递员的父亲(滕汝骏)提前退休,安排儿子接下自己的工作。儿子上班第一天,父亲千叮咛万嘱咐之后仍不放心,带上长年在其左右的忠实老狗决定陪儿子再走一趟送信之旅。

起初,父子两人因为长期隔膜只默默走路,渐渐地,通过与不同村民尤其一个漂亮女孩(陈好)的接触,两人渐渐打开话匣,对彼此有了深一层的认识和了解。秀美如画的风景中,儿子慢慢明白了父亲工作的辛苦和意义,父亲也渐渐体会到他二十几年来对家庭的亏欠。

◎获奖情况 (共8项)

第25届日本电影学院奖 (2002)

最佳外语片(提名)

第19届中国电影金鸡奖 (1999)

最佳故事片

最佳导演(提名)

└──霍建起 (id:1006351)

最佳编剧(提名)

└──思芜 (id:1306547)

最佳男主角

└──滕汝骏 (id:1299044)

最佳男配角(提名)

└──刘烨 (id:1000572)

最佳摄影(提名)

└──赵镭 (id:1306528)

第6届北京大学生电影节 (1999)

最佳男演员奖

└──滕汝骏 (id:1299044)

  1. ##### MediaInfo ######

  2. General

  3. Unique ID : 139989891595478133166362348348862113861 (0x69511289B15B8AFA2A45E51314D82845)

  4. Complete name : Postmen.in.the.Mountains.1999.1080p.BluRay.x265.10bit.AC3.MNHD-10018@BBQDDQ.COM.mkv

  5. Format : Matroska

  6. Format version : Version 4

  7. File size : 5.24 GiB

  8. Duration : 1 h 32 min

  9. Overall bit rate : 8 134 kb/s

  10. Movie name : Postmen.in.the.Mountains.1999.1080p.BluRay.x265.10bit.AC3.MNHD-10018@BBQDDQ.COM

  11. Encoded date : UTC 2021-09-07 00:28:38

  12. Writing application : mkvmerge v53.0.0 ('Fool's Gold') 64-bit

  13. Writing library : libebml v1.4.1 + libmatroska v1.6.2


  14. Video

  15. ID : 1

  16. Format : HEVC

  17. Format/Info : High Efficiency Video Coding

  18. Format profile : Main 10@L5.1@High

  19. Codec ID : V_MPEGH/ISO/HEVC

  20. Duration : 1 h 32 min

  21. Bit rate : 7 492 kb/s

  22. Width : 1 916 pixels

  23. Height : 1 036 pixels

  24. Display aspect ratio : 1.85:1

  25. Frame rate mode : Constant

  26. Frame rate : 29.970 (30000/1001/53354) FPS

  27. Color space : YUV

  28. Chroma subsampling : 4:2:0

  29. Bit depth : 10 bits

  30. Bits/(Pixel*Frame) : 0.126

  31. Stream size : 4.83 GiB (92%)

  32. Writing library : x265 3.5+1-f0c1022b6:[Linux][GCC 9.3.0][64 bit] 10bit

  33. Encoding settings : cpuid=533541111039 / frame-threads=3 / numa-pools=11 / wpp / pmode / no-pme / no-psnr / no-ssim / log-level=2 / input-csp=1 / input-res=1916x1036 / interlace=0 / total-frames=165870 / level-idc=0 / high-tier=1 / uhd-bd=0 / ref=4 / no-allow-non-conformance / no-repeat-headers / annexb / no-aud / no-hrd / info / hash=0 / no-temporal-layers / no-open-gop / min-keyint=1 / keyint=250 / gop-lookahead=0 / bframes=6 / b-adapt=2 / b-pyramid / bframe-bias=0 / rc-lookahead=80 / lookahead-slices=0 / NTMzNTQ=uuDQuD2mJt9fsCf / scenecut=40 / hist-scenecut=0 / radl=0 / no-splice / no-intra-refresh / ctu=32 / min-cu-size=8 / no-rect / no-amp / max-tu-size=32 / tu-inter-depth=4 / tu-intra-depth=4 / limit-tu=0 / rdoq-level=2 / dynamic-rd=0.00 / no-ssim-rd / signhide / no-tskip / nr-intra=0 / nr-inter=0 / no-constrained-intra / strong-intra-smoothing / max-merge=5 / limit-refs=0 / no-limit-modes / me=3 / subme=7 / merange=57 / temporal-mvp / no-frame-dup / no-hme / weightp / weightb / no-analyze-src-pics / deblock=-3:-3 / no-sao / no-sao-non-deblock / rd=4 / selective-sao=0 / no-early-skip / no-rskip / no-fast-intra / no-tskip-fast / no-cu-lossless / b-intra / no-splitrd-skip / rdpenalty=0 / psy-rd=1.50 / psy-rdoq=1.00 / no-rd-refine / no-lossless / cbqpoffs=-2 / crqpoffs=-2 / rc=crf / crf=25.1 / qcomp=0.65 / qpstep=4 / stats-write=0 / stats-read=0 / vbv-maxrate=160000 / vbv-bufsize=160000 / vbv-init=0.9 / min-vbv-fullness=50.0 / max-vbv-fullness=80.0 / crf-max=0.0 / crf-min=0.0 / ipratio=1.30 / pbratio=1.20 / aq-mode=1 / aq-strength=1.00 / no-cutree / zone-count=0 / no-strict-cbr / qg-size=8 / no-rc-grain / qpmax=69 / qpmin=0 / no-const-vbv / sar=0 / overscan=0 / videoformat=5 / range=0 / colorprim=1 / transfer=1 / colormatrix=1 / chromaloc=0 / display-window=0 / cll=0,0 / min-luma=0 / max-luma=1023 / log2-max-poc-lsb=8 / vui-timing-info / vui-hrd-info / slices=1 / no-opt-qp-pps / no-opt-ref-list-length-pps / no-multi-pass-opt-rps / scenecut-bias=0.05 / hist-threshold=0.03 / no-opt-cu-delta-qp / no-aq-motion / no-hdr10 / no-hdr10-opt / no-dhdr10-opt / no-idr-recovery-sei / analysis-reuse-level=0 / analysis-save-reuse-level=0 / analysis-load-reuse-level=0 / scale-factor=0 / refine-intra=0 / refine-inter=0 / refine-mv=1 / refine-ctu-distortion=0 / no-limit-sao / ctu-info=0 / no-lowpass-dct / refine-analysis-type=0 / copy-pic=1 / max-ausize-factor=1.0 / no-dynamic-refine / no-single-sei / no-hevc-aq / no-svt / no-field / qp-adaptation-range=1.00 / scenecut-aware-qp=0conformance-window-offsets / right=0 / bottom=0 / NTMzNTQ= / decoder-max-rate=0 / no-vbv-live-multi-pass

  34. Default : Yes

  35. Forced : No

  36. Color range : Limited

  37. Color primaries : BT.709

  38. Transfer characteristics : BT.709

  39. Matrix coefficients : BT.709


  40. Audio

  41. ID : 2

  42. Format : AC-3

  43. Format/Info : Audio Coding 3

  44. Commercial name : Dolby Digital

  45. Codec ID : A_AC3

  46. Duration : 1 h 32 min

  47. Bit rate mode : Constant

  48. Bit rate : 640 kb/s

  49. Channel(s) : 2 channels

  50. Channel layout : L R

  51. Sampling rate : 48.0 kHz

  52. Frame rate : 31.250 FPS (1536 SPF)

  53. Compression mode : Lossy

  54. Stream size : 422 MiB (8%)

  55. Language : Chinese

  56. Service kind : Complete Main

  57. Default : Yes

  58. Forced : No


  59. Text

  60. ID : 3

  61. Format : UTF-8

  62. Codec ID : S_TEXT/UTF8

  63. Codec ID/Info : UTF-8 Plain Text

  64. Duration : 1 h 26 min

  65. Bit rate : 29 b/s

  66. Count of elements : 616

  67. Stream size : 18.5 KiB (0%)

  68. Title : Chs

  69. Language : Chinese

  70. Default : Yes

  71. Forced : No


  72. Menu

  73. 00:00:00.000 : en:Chapter 01

  74. 00:15:02.902 : en:Chapter 02

  75. 00:19:05.244 : en:Chapter 03

  76. 00:29:45.384 : en:Chapter 04

  77. 00:32:41.593 : en:Chapter 05

  78. 00:43:22.066 : en:Chapter 06

  79. 00:56:26.016 : en:Chapter 07

  80. 01:05:38.401 : en:Chapter 08

  81. 01:12:02.652 : en:Chapter 09

  82. 01:15:41.704 : en:Chapter 10

  83. 01:20:04.466 : en:Chapter 11

  84. 01:27:55.237 : en:Chapter 12


文件下载


除非特别注明,本文『那山那人那狗[国语音轨/中文字幕].Postmen.in.the.Mountains.1999.1080p.BluRay.x265.10bit.AC3.MNHD 5.24GB』来源于互联网机器人自动抓取,非本站原创。 浮游电影网不对本文拥有版权,如有侵犯,请联系邮箱:fuyouu#yandex.com[#换成@]投诉。我们会在15个工作日内删除。 但烦请转载时请标明出处:“本文转载于『浮游电影网』,原文地址:https://5.189.174.242/14249.html

评论吧骚年!

发表你的见解   

昵称*

E-mail*(建议输入,以便收到博主回复的提示邮件)

验证码*

您可以使用eMule或eMule Mod(Windows)、aMule(Win、Linux、Mac)等软件下载eD2k链接。。
eMule收藏集(.emulecollection)文件是您选中的所有链接的列表文件。eMule可以直接下载它们。
按住SHIFT键选择可以选中多个选择框。
可用文件名和大小选择器来选择文件。
文件名选择器帮您根据文件名称或后缀来选择文件。不分大小写。
符号使用:
和:空格( )、+
不包含:-
或:|
转义:一对英文引号("");
匹配开头:^
匹配结尾:$
例如:
选中所有名称中包含有“eMule”或“0.49c”字眼,但不包含有“exe”字眼的:emule|0.49c -exe
选中所有名称的开头是“eMule”,结尾是“0.49c”的:^emule 0.49c$
选中所有名称中带有“eMule 0.49c”的(必须是“eMule 0.49c”,中间没有别的字符,不能是“eMule fake 0.49c”),需要转义:"emule 0.49c"
大小选择器帮您根据文件大小选择文件。