当前位置: 首页 >> 欧美电影 >> 今天在这里[中文字幕].Here.Today.2021.1080p.BluRay.DTS.x265-10bit 8.39GB >> 正文

今天在这里[中文字幕].Here.Today.2021.1080p.BluRay.DTS.x265-10bit 8.39GB

2021年09月07日 22:02:57     电影发布:来源于网络     电影分类:欧美电影     评论(0)    

今天在这里[中文字幕].Here.Today.2021.1080p.BluRay.DTS.x265 10bit 8.39GB 喜剧片 欧美电影  第1张

◎译 名 今天在这里

◎片 名 Here Today

◎年 代 2021

◎产 地 美国

◎类 别 喜剧

◎语 言 英语

◎上映日期 2021-05-06(美国)

◎IMDb链接 https://www.imdb.com/title/tt10944596/

◎豆瓣评分 7.5/10 (245人评价)

◎豆瓣链接 https://movie.douban.com/subject/34851832/

◎片 长 117分钟

◎导 演 比利·克里斯托 Billy Crystal (id:1031893)

◎编 剧 比利·克里斯托 Billy Crystal (id:1031893)

艾伦·兹韦贝尔 Alan Zweibel (id:1048353)

◎演 员 蒂凡尼·哈迪斯 Tiffany Haddish (id:1194813)

比利·克里斯托 Billy Crystal (id:1031893)

莎朗·斯通 Sharon Stone (id:1031822)

佩恩·拜德格雷 Penn Badgley (id:1041110)

劳拉·本纳蒂 Laura Benanti (id:1189444)

凯文·克莱恩 Kevin Kline (id:1040531)

巴瑞·莱文森 Barry Levinson (id:1002774)

路易莎·克劳瑟 Louisa Krause (id:1045210)

乔安娜·阿德勒 Joanna Adler (id:1392525)

希洛·维里科 Shiloh Verrico (id:1456466)

安娜·迪佛·史密斯 Anna Deavere Smith (id:1153867)

苏珊·波尔法 Susan Pourfar (id:1374784)

里桑·瓦伦丁 Lisann Valentin (id:1419235)

蒂胡纳·里克斯 Tijuana Ricks (id:1187845)

尼扬比·尼扬比 Nyambi Nyambi (id:1045469)

鲍勃·科斯塔斯 Bob Costas (id:1077071)

托尼·诺莫夫斯基 Tony Naumovski (id:1243476)

布兰登·乌拉诺维兹 Brandon Uranowitz (id:1416782)

丽贝卡·莫勒 Rebecca Merle (id:1001068)

艾利克斯··布莱曼 Alex Brightman (id:1457581)

◎标 签 喜剧 / 美国 / 家庭 / 友情 / 2021 / 剧情 / 电影 / 美国电影

◎简 介

影片故事讲述了老牌喜剧作家查理(比利·克里斯托 Billy Crystal 饰)与才华横溢的纽约街头歌手艾玛(蒂凡尼·哈迪斯 Tiffany Haddish 饰)成为朋友的故事。他们在一起形成了一种不太可能但却令人捧腹和感动的友谊。

  1. ##### MediaInfo ######

  2. General

  3. Unique ID : 12679566943614275450679830700695874056 (0x989FEEA82DDFA2F5007E4404009EA08)

  4. Complete name : Here.Today.2021.1080p.BluRay.DTS.x265-10bit-10007@BBQDDQ.COM.mkv

  5. Format : Matroska

  6. Format version : Version 4

  7. File size : 8.39 GiB

  8. Duration : 1 h 57 min

  9. Overall bit rate : 10.3 Mb/s

  10. Movie name : Here Today 2021 1080p BluRay DTS x265-10bit-10007@BBQDDQ.COM

  11. Encoded date : UTC 2021-09-06 22:55:59

  12. Writing application : mkvmerge v38.0.0 ('The Silent Type') 64-bit

  13. Writing library : libebml v1.3.9 + libmatroska v1.5.2


  14. Video

  15. ID : 1

  16. Format : HEVC

  17. Format/Info : High Efficiency Video Coding

  18. Format profile : Main 10@L5.1@High

  19. Codec ID : V_MPEGH/ISO/HEVC

  20. Duration : 1 h 57 min

  21. Bit rate : 8 703 kb/s

  22. Width : 1 920 pixels

  23. Height : 1 036 pixels

  24. Display aspect ratio : 1.85:1

  25. Frame rate mode : Constant

  26. Frame rate : 23.976 (24000/1001/53354) FPS

  27. Color space : YUV

  28. Chroma subsampling : 4:2:0

  29. Bit depth : 10 bits

  30. Bits/(Pixel*Frame) : 0.182

  31. Stream size : 7.11 GiB (85%)

  32. Title : @HDSky

  33. Writing library : x265 - H.265/HEVC codec

  34. Default : Yes

  35. Forced : No


  36. Audio

  37. ID : 2

  38. Format : DTS

  39. Format/Info : Digital Theater Systems

  40. Codec ID : A_DTS

  41. Duration : 1 h 56 min

  42. Bit rate mode : Constant

  43. Bit rate : 1 509 kb/s

  44. Channel(s) : 6 channels

  45. Channel layout : C L R Ls Rs LFE

  46. Sampling rate : 48.0 kHz

  47. Frame rate : 93.750 FPS (512 SPF)

  48. Bit depth : 24 bits

  49. Compression mode : Lossy

  50. Stream size : 1.23 GiB (15%)

  51. Title : English

  52. Language : English

  53. Default : Yes

  54. Forced : No


  55. Text #1

  56. ID : 3

  57. Format : PGS

  58. Muxing mode : zlib

  59. Codec ID : S_HDMV/PGS

  60. Codec ID/Info : Picture based subtitle format used on BDs/HD-DVDs

  61. Duration : 1 h 55 min

  62. Bit rate : 49.4 kb/s

  63. Count of elements : 3842

  64. Stream size : 40.7 MiB (0%)

  65. Title : CHS

  66. Language : Chinese

  67. Default : Yes

  68. Forced : No


  69. Text #2

  70. ID : 4

  71. Format : PGS

  72. Muxing mode : zlib

  73. Codec ID : S_HDMV/PGS

  74. Codec ID/Info : Picture based subtitle format used on BDs/HD-DVDs

  75. Duration : 1 h 55 min

  76. Bit rate : 50.5 kb/s

  77. Count of elements : 3842

  78. Stream size : 41.6 MiB (0%)

  79. Title : CHT

  80. Language : Chinese

  81. Default : No

  82. Forced : No


  83. Menu

  84. 00:00:00.000 : en:Chapter 01

  85. 00:10:49.774 : en:Chapter 02

  86. 00:15:06.364 : en:Chapter 03

  87. 00:22:49.660 : en:Chapter 04

  88. 00:31:18.460 : en:Chapter 05

  89. 00:41:06.297 : en:Chapter 06

  90. 00:52:06.248 : en:Chapter 07

  91. 00:58:55.657 : en:Chapter 08

  92. 01:02:50.976 : en:Chapter 09

  93. 01:10:48.578 : en:Chapter 10

  94. 01:15:02.957 : en:Chapter 11

  95. 01:22:39.163 : en:Chapter 12

  96. 01:29:32.200 : en:Chapter 13

  97. 01:35:53.539 : en:Chapter 14

  98. 01:39:51.444 : en:Chapter 15

  99. 01:45:09.887 : en:Chapter 16

  100. 01:52:42.589 : en:Chapter 17

  101. 01:56:49.002 : en:Chapter 18


文件下载


除非特别注明,本文『今天在这里[中文字幕].Here.Today.2021.1080p.BluRay.DTS.x265-10bit 8.39GB』来源于互联网机器人自动抓取,非本站原创。 浮游电影网不对本文拥有版权,如有侵犯,请联系邮箱:fuyouu#yandex.com[#换成@]投诉。我们会在15个工作日内删除。 但烦请转载时请标明出处:“本文转载于『浮游电影网』,原文地址:https://www.fuyouu.com/14248.html

评论吧骚年!

发表你的见解   

昵称*

E-mail*(建议输入,以便收到博主回复的提示邮件)

验证码*

您可以使用eMule或eMule Mod(Windows)、aMule(Win、Linux、Mac)等软件下载eD2k链接。。
eMule收藏集(.emulecollection)文件是您选中的所有链接的列表文件。eMule可以直接下载它们。
按住SHIFT键选择可以选中多个选择框。
可用文件名和大小选择器来选择文件。
文件名选择器帮您根据文件名称或后缀来选择文件。不分大小写。
符号使用:
和:空格( )、+
不包含:-
或:|
转义:一对英文引号("");
匹配开头:^
匹配结尾:$
例如:
选中所有名称中包含有“eMule”或“0.49c”字眼,但不包含有“exe”字眼的:emule|0.49c -exe
选中所有名称的开头是“eMule”,结尾是“0.49c”的:^emule 0.49c$
选中所有名称中带有“eMule 0.49c”的(必须是“eMule 0.49c”,中间没有别的字符,不能是“eMule fake 0.49c”),需要转义:"emule 0.49c"
大小选择器帮您根据文件大小选择文件。