当前位置: 首页 >> 港台电影 >> 中国最后一个太监[国语音轨/中文字幕].Last.Eunuch.in.China.1987.WEBRip.1080p.x265.10bit.AAC.MNHD 7.95GB >> 正文

中国最后一个太监[国语音轨/中文字幕].Last.Eunuch.in.China.1987.WEBRip.1080p.x265.10bit.AAC.MNHD 7.95GB

2021年09月07日 22:01:40     电影发布:来源于网络     电影分类:港台电影     评论(0)    

中国最后一个太监[国语音轨/中文字幕].Last.Eunuch.in.China.1987.WEBRip.1080p.x265.10bit.AAC.MNHD 7.95GB 古装片 传记 剧情片 港台电影  第1张

◎译 名 中国最后一个太监 / Last Eunuch in China

◎片 名 中國最後一偺O

◎年 代 1987

◎产 地 中国香港

◎类 别 剧情 / 传记 / 古装

◎语 言 粤语

◎上映日期 1987-10-24(中国台湾)

◎IMDb链接 https://www.imdb.com/title/tt0096505/

◎豆瓣评分 7.4/10 (13799人评价)

◎豆瓣链接 https://movie.douban.com/subject/1300038/

◎片 长 90 分钟

◎导 演 张之亮 Jacob Cheung (id:1078102)

◎编 剧 方令正 Eddie Ling-Ching Fong (id:1283932)

张之亮 Jacob Cheung (id:1078102)

◎演 员 莫少聪 Siu Chung Mok (id:1037846)

温碧霞 Irene Wan (id:1023681)

午马 Wu Ma (id:1054282)

林正英 Ching-Ying Lam (id:1016823)

洪金宝 Sammo Hung Kam-Bo (id:1055887)

刘德华 Andy Lau (id:1054424)

陈友 Anthony Chan (id:1028948)

张坚庭 Alfred Cheung (id:1016979)

归亚蕾 Ya-lei Kuei (id:1058399)

文隽 Manfred Wong (id:1274823)

郎雄 Sihung Lung (id:1274507)

焦恩俊 Vincent Chiao (id:1275293)

元武 Wu Yuan (id:1344878)

彭润祥 Yun-chiang Peng (id:1431212)

林珊如 Shan-yu Lin (id:1357679)

王小凤 Pauline Wong (id:1275089)

王宇 Yu Wang (id:1347933)

薛汉 Han Hsieh (id:1093895)

田俊 James Tien Chun (id:1352930)

陈佩华 Jessica Chan Pooi-Wa (id:1372898)

何丽嫦 Lorraine Ho (id:1418364)

顾嘉辉 Joseph Koo (id:1017256)

周锦祥 Gam Cheung Chow (id:1315803)

陈永良 Wing-leung Chan (id:1363084)

张焯雄 Cheuk-Hung Cheung (id:1411649)

周少龙 Shao Lung Chou (id:1344862)

◎标 签 香港 / 香港电影 / 历史 / 莫少聪 / 中国最后一个太监 / 刘德华 / 张之亮 / 剧情

◎简 介

宣统三年,偏僻小山村的穷孩子来喜见到本村大太监小德张“衣锦还乡”,心生羡慕。尽管母亲(归亚蕾 饰)不忍,却还是在父亲(林正英 饰)的劝说下对儿子进行净身送入宫中,以求全家得以温饱。成年后的来喜(莫少聪 饰)并没有如预期一样丰衣足食,不久民国推翻了满清,宫内的太监都不能留下。来喜来到戏班拜班主(洪金宝 饰)为师学艺,并且重逢了幼时的好友招弟(温碧霞 饰),招弟误认他是革命党人想以身相许,在知道来喜太监的身份后招弟落寞离去。来喜为逃避军阀追踪重新混入紫禁城,得到丁公公(午马 饰)照顾,经过一系列政治斗争后来喜与丁公公又被驱逐到了宫外,此时怀着身孕的招弟又出现在来喜面前。好多年过去了,当来喜以为能够拥有幸福的时候,招弟的革命党丈夫(刘德华 饰)却又出现了,而此时丁公公带着对皇帝最后的愚忠,妄图让来喜和自己前往日本领事馆照顾溥仪,来喜该何去何从?

本片改编自...

◎获奖情况 (共5项)

第24届台北金马影展 (1987)

金马奖 最佳男主角(提名)

└──莫少聪 (id:1037846)

第8届香港电影金像奖 (1989)

最佳导演(提名)

└──张之亮 (id:1078102)

最佳编剧(提名)

└──方令正 (id:1283932)

最佳男主角(提名)

└──莫少聪 (id:1037846)

最佳男配角(提名)

└──午马 (id:1054282)

  1. ##### MediaInfo ######

  2. General

  3. Unique ID : 105140529147482338068187899397884469622 (0x4F19544FFAABE6AA020CA6F2C039E176)

  4. Complete name : Last.Eunuch.in.China.1987.WEBRip.1080p.x265.10bit.AAC.MNHD-10018@BBQDDQ.COM.mkv

  5. Format : Matroska

  6. Format version : Version 4

  7. File size : 7.95 GiB

  8. Duration : 1 h 31 min

  9. Overall bit rate : 12.4 Mb/s

  10. Movie name : Last Eunuch in China 1987 WEBRip 1080p x265 10bit AAC MNHD-10018@BBQDDQ.COM

  11. Encoded date : UTC 2021-09-07 04:30:18

  12. Writing application : mkvmerge v56.1.0 ('My Friend') 64-bit

  13. Writing library : libebml v1.4.2 + libmatroska v1.6.4


  14. Video

  15. ID : 1

  16. Format : HEVC

  17. Format/Info : High Efficiency Video Coding

  18. Format profile : Main 10@L5.1@High

  19. Codec ID : V_MPEGH/ISO/HEVC

  20. Duration : 1 h 31 min

  21. Bit rate : 12.3 Mb/s

  22. Width : 1 918 pixels

  23. Height : 1 038 pixels

  24. Display aspect ratio : 1.85:1

  25. Frame rate mode : Constant

  26. Frame rate : 23.976 (24000/1001/53354) FPS

  27. Color space : YUV

  28. Chroma subsampling : 4:2:0

  29. Bit depth : 10 bits

  30. Bits/(Pixel*Frame) : 0.259

  31. Stream size : 7.91 GiB (99%)

  32. Writing library : x265 3.5+9-bf91444e0:[Windows][MSVC 1928][64 bit] 10bit

  33. Encoding settings : cpuid=533541111039 / frame-threads=3 / numa-pools=12 / wpp / pmode / no-pme / no-psnr / no-ssim / log-level=2 / input-csp=1 / input-res=1918x1038 / interlace=0 / total-frames=131916 / level-idc=0 / high-tier=1 / uhd-bd=0 / ref=6 / no-allow-non-conformance / no-repeat-headers / annexb / no-aud / no-eob / no-eos / no-hrd / info / hash=0 / no-temporal-layers / no-open-gop / min-keyint=1 / keyint=250 / gop-lookahead=0 / bframes=8 / b-adapt=2 / b-pyramid / bframe-bias=0 / rc-lookahead=100 / lookahead-slices=0 / NTMzNTQ=uuDQuD2mJt9fsCf / scenecut=40 / hist-scenecut=0 / radl=0 / no-splice / no-intra-refresh / ctu=32 / min-cu-size=8 / no-rect / no-amp / max-tu-size=32 / tu-inter-depth=4 / tu-intra-depth=4 / limit-tu=0 / rdoq-level=2 / dynamic-rd=0.00 / no-ssim-rd / signhide / no-tskip / nr-intra=0 / nr-inter=0 / no-constrained-intra / strong-intra-smoothing / max-merge=5 / limit-refs=0 / no-limit-modes / me=3 / subme=7 / merange=57 / temporal-mvp / no-frame-dup / no-hme / weightp / weightb / no-analyze-src-pics / deblock=-3:-3 / no-sao / no-sao-non-deblock / rd=4 / selective-sao=0 / no-early-skip / no-rskip / no-fast-intra / no-tskip-fast / no-cu-lossless / b-intra / no-splitrd-skip / rdpenalty=0 / psy-rd=1.50 / psy-rdoq=1.00 / no-rd-refine / no-lossless / cbqpoffs=-2 / crqpoffs=-2 / rc=crf / crf=23.0 / qcomp=0.65 / qpstep=4 / stats-write=0 / stats-read=0 / vbv-maxrate=160000 / vbv-bufsize=160000 / vbv-init=0.9 / min-vbv-fullness=50.0 / max-vbv-fullness=80.0 / crf-max=0.0 / crf-min=0.0 / ipratio=1.30 / pbratio=1.20 / aq-mode=1 / aq-strength=1.00 / no-cutree / zone-count=0 / no-strict-cbr / qg-size=8 / no-rc-grain / qpmax=69 / qpmin=0 / no-const-vbv / sar=0 / overscan=0 / videoformat=5 / range=0 / colorprim=1 / transfer=1 / colormatrix=1 / chromaloc=0 / display-window=0 / cll=0,0 / min-luma=0 / max-luma=1023 / log2-max-poc-lsb=8 / vui-timing-info / vui-hrd-info / slices=1 / no-opt-qp-pps / no-opt-ref-list-length-pps / no-multi-pass-opt-rps / scenecut-bias=0.05 / hist-threshold=0.03 / no-opt-cu-delta-qp / no-aq-motion / no-hdr10 / no-hdr10-opt / no-dhdr10-opt / no-idr-recovery-sei / analysis-reuse-level=0 / analysis-save-reuse-level=0 / analysis-load-reuse-level=0 / scale-factor=0 / refine-intra=0 / refine-inter=0 / refine-mv=1 / refine-ctu-distortion=0 / no-limit-sao / ctu-info=0 / no-lowpass-dct / refine-analysis-type=0 / copy-pic=1 / max-ausize-factor=1.0 / no-dynamic-refine / no-single-sei / no-hevc-aq / no-svt / no-field / qp-adaptation-range=1.00 / scenecut-aware-qp=0conformance-window-offsets / right=0 / bottom=0 / NTMzNTQ= / decoder-max-rate=0 / no-vbv-live-multi-pass

  34. Default : Yes

  35. Forced : No

  36. Color range : Limited

  37. Color primaries : BT.709

  38. Transfer characteristics : BT.709

  39. Matrix coefficients : BT.709


  40. Audio

  41. ID : 2

  42. Format : AAC LC SBR

  43. Format/Info : Advanced Audio Codec Low Complexity with Spectral Band Replication

  44. Commercial name : HE-AAC

  45. Format settings : Explicit

  46. Codec ID : A_AAC-2

  47. Duration : 1 h 31 min

  48. Bit rate : 69.7 kb/s

  49. Channel(s) : 1 channel

  50. Channel layout : C

  51. Sampling rate : 48.0 kHz

  52. Frame rate : 23.438 FPS (2048 SPF)

  53. Compression mode : Lossy

  54. Stream size : 45.7 MiB (1%)

  55. Title : Mandarin

  56. Language : Chinese

  57. Default : Yes

  58. Forced : No


  59. Text #1

  60. ID : 3

  61. Format : ASS

  62. Codec ID : S_TEXT/ASS

  63. Codec ID/Info : Advanced Sub Station Alpha

  64. Duration : 1 h 27 min

  65. Bit rate : 89 b/s

  66. Count of elements : 1260

  67. Compression mode : Lossless

  68. Stream size : 57.6 KiB (0%)

  69. Title : CHS

  70. Language : Chinese

  71. Default : Yes

  72. Forced : No


  73. Text #2

  74. ID : 4

  75. Format : ASS

  76. Codec ID : S_TEXT/ASS

  77. Codec ID/Info : Advanced Sub Station Alpha

  78. Duration : 1 h 27 min

  79. Bit rate : 89 b/s

  80. Count of elements : 1260

  81. Compression mode : Lossless

  82. Stream size : 57.6 KiB (0%)

  83. Title : CHT

  84. Language : Chinese

  85. Default : No

  86. Forced : No



文件下载


除非特别注明,本文『中国最后一个太监[国语音轨/中文字幕].Last.Eunuch.in.China.1987.WEBRip.1080p.x265.10bit.AAC.MNHD 7.95GB』来源于互联网机器人自动抓取,非本站原创。 浮游电影网不对本文拥有版权,如有侵犯,请联系邮箱:fuyouu#yandex.com[#换成@]投诉。我们会在15个工作日内删除。 但烦请转载时请标明出处:“本文转载于『浮游电影网』,原文地址:https://www.fuyouu.com/14247.html

评论吧骚年!

发表你的见解   

昵称*

E-mail*(建议输入,以便收到博主回复的提示邮件)

验证码*

您可以使用eMule或eMule Mod(Windows)、aMule(Win、Linux、Mac)等软件下载eD2k链接。。
eMule收藏集(.emulecollection)文件是您选中的所有链接的列表文件。eMule可以直接下载它们。
按住SHIFT键选择可以选中多个选择框。
可用文件名和大小选择器来选择文件。
文件名选择器帮您根据文件名称或后缀来选择文件。不分大小写。
符号使用:
和:空格( )、+
不包含:-
或:|
转义:一对英文引号("");
匹配开头:^
匹配结尾:$
例如:
选中所有名称中包含有“eMule”或“0.49c”字眼,但不包含有“exe”字眼的:emule|0.49c -exe
选中所有名称的开头是“eMule”,结尾是“0.49c”的:^emule 0.49c$
选中所有名称中带有“eMule 0.49c”的(必须是“eMule 0.49c”,中间没有别的字符,不能是“eMule fake 0.49c”),需要转义:"emule 0.49c"
大小选择器帮您根据文件大小选择文件。