当前位置: 首页 >> 海外电影 >> 隆美尔[中文字幕].Rommel.2012.1080p.BluRay.DTS-HD.MA.5.1.2Audio.x265-10bit 10.30GB >> 正文

隆美尔[中文字幕].Rommel.2012.1080p.BluRay.DTS-HD.MA.5.1.2Audio.x265-10bit 10.30GB

2021年09月07日 21:55:36     电影发布:来源于网络     电影分类:海外电影     评论(0)    

隆美尔[中文字幕].Rommel.2012.1080p.BluRay.DTS HD.MA.5.1.2Audio.x265 10bit 10.30GB 战争片 历史 剧情片 海外电影  第1张

◎译 名 隆美尔

◎片 名 Rommel

◎年 代 2012

◎产 地 德国

◎类 别 剧情 / 历史 / 战争

◎语 言 德语

◎上映日期 2012-11-01

◎IMDb链接 https://www.imdb.com/title/tt2157346/

◎豆瓣评分 6.3/10 (1694人评价)

◎豆瓣链接 https://movie.douban.com/subject/20284815/

◎导 演 卡曼斯基 Nikolaus Stein von Kamienski (id:1008242)

◎编 剧 卡曼斯基 Nikolaus Stein von Kamienski (id:1008242)

◎演 员 乌尔里希·图库尔 Ulrich Tukur (id:1025357)

蒂姆·博格曼 Tim Bergmann (id:1063220)

帕特里克·莫勒肯 Patrick M?lleken (id:1231057)

马克西米连·冯·普芬多夫 Maximilian von Pufendorf (id:1325521)

罗夫·凯尼斯 Rolf Kanies (id:1321692)

◎标 签 二战 / 德国 / 传记 / 隆美尔 / 战争 / 历史 / 德国电影 / 军事

◎简 介

埃尔文·隆美尔是二战中德国最负盛名的将领,也是希特勒最为宠爱的将领。稍对世界军事史有了解的人都会知道他那个著名的绰号——“沙漠之狐”。由于他在北非沙漠战场的一系列惊人战绩(隆美尔率领2个师的军队在北非仅仅用了2个星期就让英军之前2个月的战果丧失殆尽)和德国媒体和盟国媒体的疯狂宣传,他在世时就已成为一个具有传奇色彩的军人和德国人崇拜的偶像。

第二次世界大战爆发后,隆美尔作为德国最高统帅部的指挥官之一,受到希特勒的器重。1940年2月,希特勒任命他为第7装甲师师长,并赠给《我的奋斗》一书。5~6月间,在德军闪击西欧的侵略战争中,隆美尔指挥装甲第7师冲在最前面,先克比利时,接着是阿拉斯、索姆,最后直捣法国西海岸,被法国人称之为“魔鬼之师”。

1941年2月,希特勒又任命隆美尔为“德国非洲军”军长,前往北非援救一败涂地的意大利军队。他到达北非的黎波里前线后,...

  1. ##### MediaInfo ######

  2. General

  3. Unique ID : 190537930747914079384765922945472663115 (0x8F58454875B5EF4A272DF55F75980E4B)

  4. Complete name : Rommel.2012.1080p.BluRay.DTS-HD.MA.5.1.2Audio.x265-10bit-10007@BBQDDQ.COM.mkv

  5. Format : Matroska

  6. Format version : Version 4

  7. File size : 10.3 GiB

  8. Duration : 1 h 58 min

  9. Overall bit rate mode : Variable

  10. Overall bit rate : 12.4 Mb/s

  11. Movie name : Rommel 2012 1080p BluRay DTS 2Audio x265-10bit-10007@BBQDDQ.COM

  12. Encoded date : UTC 2021-09-06 09:29:57

  13. Writing application : mkvmerge v38.0.0 ('The Silent Type') 64-bit

  14. Writing library : libebml v1.3.9 + libmatroska v1.5.2


  15. Video

  16. ID : 1

  17. Format : HEVC

  18. Format/Info : High Efficiency Video Coding

  19. Format profile : Main 10@L5.1@High

  20. Codec ID : V_MPEGH/ISO/HEVC

  21. Duration : 1 h 58 min

  22. Bit rate : 6 436 kb/s

  23. Width : 1 920 pixels

  24. Height : 1 080 pixels

  25. Display aspect ratio : 16:9

  26. Frame rate mode : Constant

  27. Frame rate : 25.000 FPS

  28. Color space : YUV

  29. Chroma subsampling : 4:2:0

  30. Bit depth : 10 bits

  31. Bits/(Pixel*Frame) : 0.124

  32. Stream size : 5.33 GiB (52%)

  33. Title : howfuckedareyounow@HDSky

  34. Writing library : x265 - H.265/HEVC codec

  35. Default : Yes

  36. Forced : No


  37. Audio #1

  38. ID : 2

  39. Format : DTS XLL

  40. Format/Info : Digital Theater Systems

  41. Commercial name : DTS-HD Master Audio

  42. Codec ID : A_DTS

  43. Duration : 1 h 58 min

  44. Bit rate mode : Variable

  45. Bit rate : 4 028 kb/s

  46. Channel(s) : 6 channels

  47. Channel layout : C L R Ls Rs LFE

  48. Sampling rate : 48.0 kHz

  49. Frame rate : 93.750 FPS (512 SPF)

  50. Bit depth : 24 bits

  51. Compression mode : Lossless

  52. Stream size : 3.34 GiB (32%)

  53. Title : German

  54. Language : German

  55. Default : Yes

  56. Forced : No


  57. Audio #2

  58. ID : 3

  59. Format : DTS XLL

  60. Format/Info : Digital Theater Systems

  61. Commercial name : DTS-HD Master Audio

  62. Codec ID : A_DTS

  63. Duration : 1 h 58 min

  64. Bit rate mode : Variable

  65. Bit rate : 1 939 kb/s

  66. Channel(s) : 2 channels

  67. Channel layout : L R

  68. Sampling rate : 48.0 kHz

  69. Frame rate : 93.750 FPS (512 SPF)

  70. Bit depth : 24 bits

  71. Compression mode : Lossless

  72. Stream size : 1.61 GiB (16%)

  73. Title : English

  74. Language : English

  75. Default : No

  76. Forced : No


  77. Text #1

  78. ID : 4

  79. Format : PGS

  80. Muxing mode : zlib

  81. Codec ID : S_HDMV/PGS

  82. Codec ID/Info : Picture based subtitle format used on BDs/HD-DVDs

  83. Duration : 1 h 57 min

  84. Bit rate : 19.4 kb/s

  85. Count of elements : 2231

  86. Stream size : 16.3 MiB (0%)

  87. Title : CHS

  88. Language : Chinese

  89. Default : Yes

  90. Forced : No


  91. Text #2

  92. ID : 5

  93. Format : PGS

  94. Muxing mode : zlib

  95. Codec ID : S_HDMV/PGS

  96. Codec ID/Info : Picture based subtitle format used on BDs/HD-DVDs

  97. Duration : 1 h 57 min

  98. Bit rate : 22.2 kb/s

  99. Count of elements : 2231

  100. Stream size : 18.6 MiB (0%)

  101. Title : CHT

  102. Language : Chinese

  103. Default : No

  104. Forced : No


  105. Menu

  106. 00:00:00.000 : en:Chapter 01

  107. 00:10:30.720 : en:Chapter 02

  108. 00:21:11.759 : en:Chapter 03

  109. 00:32:20.000 : en:Chapter 04

  110. 00:41:59.719 : en:Chapter 05

  111. 00:52:53.360 : en:Chapter 06

  112. 01:02:35.320 : en:Chapter 07

  113. 01:13:45.800 : en:Chapter 08

  114. 01:22:42.800 : en:Chapter 09

  115. 01:34:27.079 : en:Chapter 10

  116. 01:42:56.840 : en:Chapter 11

  117. 01:51:48.279 : en:Chapter 12



文件下载


除非特别注明,本文『隆美尔[中文字幕].Rommel.2012.1080p.BluRay.DTS-HD.MA.5.1.2Audio.x265-10bit 10.30GB』来源于互联网机器人自动抓取,非本站原创。 浮游电影网不对本文拥有版权,如有侵犯,请联系邮箱:fuyouu#yandex.com[#换成@]投诉。我们会在15个工作日内删除。 但烦请转载时请标明出处:“本文转载于『浮游电影网』,原文地址:https://www.fuyouu.com/14242.html

评论吧骚年!

发表你的见解   

昵称*

E-mail*(建议输入,以便收到博主回复的提示邮件)

验证码*

您可以使用eMule或eMule Mod(Windows)、aMule(Win、Linux、Mac)等软件下载eD2k链接。。
eMule收藏集(.emulecollection)文件是您选中的所有链接的列表文件。eMule可以直接下载它们。
按住SHIFT键选择可以选中多个选择框。
可用文件名和大小选择器来选择文件。
文件名选择器帮您根据文件名称或后缀来选择文件。不分大小写。
符号使用:
和:空格( )、+
不包含:-
或:|
转义:一对英文引号("");
匹配开头:^
匹配结尾:$
例如:
选中所有名称中包含有“eMule”或“0.49c”字眼,但不包含有“exe”字眼的:emule|0.49c -exe
选中所有名称的开头是“eMule”,结尾是“0.49c”的:^emule 0.49c$
选中所有名称中带有“eMule 0.49c”的(必须是“eMule 0.49c”,中间没有别的字符,不能是“eMule fake 0.49c”),需要转义:"emule 0.49c"
大小选择器帮您根据文件大小选择文件。