当前位置: 首页 >> 国产电影 >> 危城[国粤语配音/中文字幕].Call.of.Heroes.2016.1080p.BluRay.x265.10bit.DTS.2Audio 9.28GB >> 正文

危城[国粤语配音/中文字幕].Call.of.Heroes.2016.1080p.BluRay.x265.10bit.DTS.2Audio 9.28GB

2021年09月07日 21:54:02     电影发布:来源于网络     电影分类:国产电影     评论(0)    

危城[国粤语配音/中文字幕].Call.of.Heroes.2016.1080p.BluRay.x265.10bit.DTS.2Audio 9.28GB 武侠片 古装片 犯罪片 动作片 剧情片 国产电影  第1张

◎译 名 危城 / 危城歼霸 / 夕阳武士 / The Deadly Reclaim / Call of Heroes

◎年 代 2016

◎产 地 中国大陆 / 中国香港

◎类 别 剧情 / 动作 / 犯罪 / 武侠 / 古装

◎语 言 汉语普通话

◎上映日期 2016-08-12(中国大陆)

◎IMDb链接 https://www.imdb.com/title/tt5842624/

◎豆瓣评分 5.9/10 (62157人评价)

◎豆瓣链接 https://movie.douban.com/subject/26125779/

◎片 长 120分钟

◎导 演 陈木胜 Benny Chan (id:1274293)

◎编 剧 陈木胜 Benny Chan (id:1274293)

谭惠贞 Wai-ching Tam (id:1336135)

唐耀良 Yiu-leung Tong (id:1364033)

简怡珏 I Chuech Chien (id:1374147)

◎演 员 刘青云 Sean Lau (id:1007251)

古天乐 Louis Koo (id:1027577)

彭于晏 Eddie Peng (id:1013782)

吴京 Jing Wu (id:1000525)

袁泉 Quan Yuan (id:1010504)

江疏影 Shuying Jiang (id:1323729)

廖启智 Kai Chi Liu (id:1274268)

释彦能 Yanneng Shi (id:1202926)

姜皓文 Philip Keung Ho-Man (id:1317884)

吴廷烨 Berg Ng (id:1275607)

洪天照 Sammy Hung Tin Chiu (id:1316889)

孙蛟龙 Jiaolong Sun (id:1344879)

李菁 Jing Li (id:1313907)

马志威 Edward Ma (id:1331588)

罗浩铭 Ken Ho-Ming Law (id:1371352)

张竣杰 Chun Kit Chang (id:1371353)

王礴 Bo Wang (id:1371354)

尼利特龙 Nelly Telong (id:1371355)

刘嘉艺 Jiayi Liu (id:1371356)

谢宁 Ning Xie (id:1326571)

萧松原 Songyuan Xiao (id:1325420)

洪金宝 Sammo Hung Kam-Bo (id:1055887)

甘智勤 Zhiqin Gan (id:1403473)

王宇 Yu Wang (id:1416352)

张浩 Hao Zhang (id:1387705)

祁高坤 Gaokun Qi (id:1386987)

陈木胜 Benny Chan (id:1274293)

周绰华 Alvin Chow (id:1425958)

许志湧 Zhiyong Xu (id:1398908)

黎耀辉 Yiu-Fai Lai (id:1289265)

林克明 Ke Ming Lin (id:1360416)

洪金宝 Sammo Hung Kam-Bo (id:1055887)

海瑞 Pino.Rea (id:1445093)

◎标 签 动作 / 武侠 / 香港 / 2016 / 古装 / 剧情 / 犯罪 / 华语

◎简 介

时值国家内战、军阀割据的乱世时代,军阀少帅曹少璘(古天乐 饰)因杀害三条人命,被普城保卫团团长杨克难(刘青云 饰) 绳之于法。可曹家财雄势大,以强权震慑居民,曹家上校张亦(吴京 饰)得悉事件后,赶来普城取人,在城中遇上多年不见师弟马锋(彭于晏 饰),马锋是位武功高强的浪人,路见不平欲拔刀相助,可是却面临正义与兄弟情之抉择。

◎获奖情况 (共1项)

第36届香港电影金像奖 (2017)

最佳动作设计(提名)

  1. ##### MediaInfo ######

  2. General

  3. Unique ID : 14760893811407237670245095198300162 (0x2D7C4AC40C0023E216D8026B21802)

  4. Complete name : Call.of.Heroes.2016.1080p.BluRay.x265.10bit.DTS.2Audio-10017@BBQDDQ.COM.mkv

  5. Format : Matroska

  6. Format version : Version 4

  7. File size : 9.28 GiB

  8. Duration : 1 h 59 min

  9. Overall bit rate : 11.1 Mb/s

  10. Movie name : Call of Heroes - Blu-ray?

  11. Encoded date : UTC 2021-09-06 04:33:34

  12. Writing application : mkvmerge v61.0.0 ('So') 64-bit

  13. Writing library : libebml v1.4.2 + libmatroska v1.6.4

  14. Cover : Yes

  15. Attachments : cover.jpg / WenQuanWeiMiHei-1.ttf


  16. Video

  17. ID : 1

  18. Format : HEVC

  19. Format/Info : High Efficiency Video Coding

  20. Format profile : Main 10@L4@Main

  21. Codec ID : V_MPEGH/ISO/HEVC

  22. Duration : 1 h 59 min

  23. Bit rate : 8 081 kb/s

  24. Width : 1 920 pixels

  25. Height : 816 pixels

  26. Display aspect ratio : 2.35:1

  27. Frame rate mode : Constant

  28. Frame rate : 24.000 FPS

  29. Color space : YUV

  30. Chroma subsampling : 4:2:0

  31. Bit depth : 10 bits

  32. Bits/(Pixel*Frame) : 0.215

  33. Stream size : 6.76 GiB (73%)

  34. Writing library : x265 3.5+2-g2b25c9ba0+45:[Windows][GCC 10.2.0][64 bit] Yuuki 10bit+8bit+12bit

  35. Encoding settings : rc=crf / crf=17.0000 / qcomp=0.65 / qpstep=4 / stats-write=0 / stats-read=0 / no-lossless / no-cu-lossless / aq-mode=3 / aq-strength=0.80 / cbqpoffs=0 / crqpoffs=0 / ipratio=1.40 / pbratio=1.30 / psy-rd=2.00 / psy-rdoq=0.00 / deblock=0:0 / ref=6 / limit-refs=1 / no-limit-modes / bframes=8 / b-adapt=2 / bframe-bias=0 / b-pyramid / b-intra / weightp / weightb / min-keyint=24 / max-keyint=240 / rc-lookahead=24 / gop-lookahead=0 / NTMzNTQ=uuDQuD2mJt9fsCf / scenecut=40 / hist-scenecut=0 / radl=0 / max-cu-size=64 / min-cu-size=8 / me=3 / subme=7 / merange=48 / rdoq-level=0 / rd=4 / rdpenalty=0 / dynamic-rd=0.00 / no-rd-refine / ----- / cutree / sao / no-rect / no-amp / no-open-gop / wpp / no-pmode / pme / no-psnr / no-ssim / nr-intra=0 / nr-inter=0 / no-constrained-intra / no-strong-intra-smoothing / max-tu-size=32 / tu-inter-depth=1 / tu-intra-depth=1 / limit-tu=0 / qg-size=32 / qpmax=69 / qpmin=0 / ----- / cpuid=533541111039 / frame-threads=4 / numa-pools=+ / log-level=2 / input-csp=1 / input-res=1920x816 / interlace=0 / level-idc=0 / high-tier=1 / uhd-bd=0 / no-allow-non-conformance / no-repeat-headers / aud / no-hrd / info / hash=0 / no-temporal-layers / lookahead-slices=0 / no-splice / no-intra-refresh / no-ssim-rd / signhide / no-tskip / max-merge=3 / temporal-mvp / no-frame-dup / no-hme / no-analyze-src-pics / no-sao-non-deblock / selective-sao=4 / early-skip / rskip / no-fast-intra / no-tskip-fast / no-splitrd-skip / zone-count=0 / no-strict-cbr / no-rc-grain / no-const-vbv / sar=0 / overscan=0 / videoformat=5 / range=0 / colorprim=2 / transfer=2 / colormatrix=2 / chromaloc=0 / display-window=0 / cll=0,0 / min-luma=0 / max-luma=1023 / log2-max-poc-lsb=8 / vui-timing-info / vui-hrd-info / slices=1 / no-opt-qp-pps / no-opt-ref-list-length-pps / no-multi-pass-opt-rps / scenecut-bias=0.05 / hist-threshold=0.03 / no-opt-cu-delta-qp / no-aq-motion / no-hdr10 / no-hdr10-opt / no-dhdr10-opt / no-idr-recovery-sei / analysis-reuse-level=0 / analysis-save-reuse-level=0 / analysis-load-reuse-level=0 / scale-factor=0 / refine-intra=0 / refine-inter=0 / refine-mv=1 / refine-ctu-distortion=0 / no-limit-sao / ctu-info=0 / no-lowpass-dct / refine-analysis-type=0 / copy-pic=1 / max-ausize-factor=1.0 / no-dynamic-refine / no-single-sei / no-hevc-aq / no-svt / no-field / qp-adaptation-range=1.00 / scenecut-aware-qp=0conformance-window-offsets / right=0 / bottom=0 / NTMzNTQ= / decoder-max-rate=0 / no-vbv-live-multi-pass

  36. Default : Yes

  37. Forced : No


  38. Audio #1

  39. ID : 2

  40. Format : DTS

  41. Format/Info : Digital Theater Systems

  42. Codec ID : A_DTS

  43. Duration : 1 h 59 min

  44. Bit rate mode : Constant

  45. Bit rate : 1 509 kb/s

  46. Channel(s) : 6 channels

  47. Channel layout : C L R Ls Rs LFE

  48. Sampling rate : 48.0 kHz

  49. Frame rate : 93.750 FPS (512 SPF)

  50. Bit depth : 16 bits

  51. Compression mode : Lossy

  52. Stream size : 1.26 GiB (14%)

  53. Title : Mandarin

  54. Language : Chinese

  55. Default : Yes

  56. Forced : No


  57. Audio #2

  58. ID : 3

  59. Format : DTS

  60. Format/Info : Digital Theater Systems

  61. Codec ID : A_DTS

  62. Duration : 1 h 59 min

  63. Bit rate mode : Constant

  64. Bit rate : 1 509 kb/s

  65. Channel(s) : 6 channels

  66. Channel layout : C L R Ls Rs LFE

  67. Sampling rate : 48.0 kHz

  68. Frame rate : 93.750 FPS (512 SPF)

  69. Bit depth : 16 bits

  70. Compression mode : Lossy

  71. Stream size : 1.26 GiB (14%)

  72. Title : Cantonese

  73. Language : Chinese

  74. Default : No

  75. Forced : No


  76. Text #1

  77. ID : 4

  78. Format : ASS

  79. Codec ID : S_TEXT/ASS

  80. Codec ID/Info : Advanced Sub Station Alpha

  81. Duration : 1 h 52 min

  82. Bit rate : 62 b/s

  83. Count of elements : 1257

  84. Compression mode : Lossless

  85. Stream size : 51.1 KiB (0%)

  86. Title : chs

  87. Language : Chinese

  88. Default : Yes

  89. Forced : No


  90. Text #2

  91. ID : 5

  92. Format : ASS

  93. Codec ID : S_TEXT/ASS

  94. Codec ID/Info : Advanced Sub Station Alpha

  95. Duration : 1 h 52 min

  96. Bit rate : 62 b/s

  97. Count of elements : 1267

  98. Compression mode : Lossless

  99. Stream size : 51.7 KiB (0%)

  100. Title : cht

  101. Language : Chinese

  102. Default : No

  103. Forced : No


  104. Text #3

  105. ID : 6

  106. Format : UTF-8

  107. Codec ID : S_TEXT/UTF8

  108. Codec ID/Info : UTF-8 Plain Text

  109. Duration : 1 h 52 min

  110. Bit rate : 33 b/s

  111. Count of elements : 1282

  112. Stream size : 27.9 KiB (0%)

  113. Title : eng

  114. Language : English

  115. Default : No

  116. Forced : No


  117. Menu

  118. 00:00:00.000 : Chapter 01

  119. 00:08:56.208 : Chapter 02

  120. 00:24:09.958 : Chapter 03

  121. 00:32:18.166 : Chapter 04

  122. 00:40:09.041 : Chapter 05

  123. 00:45:38.374 : Chapter 06

  124. 00:53:11.583 : Chapter 07

  125. 01:00:14.666 : Chapter 08

  126. 01:14:37.583 : Chapter 09

  127. 01:20:53.458 : Chapter 10

  128. 01:30:44.499 : Chapter 11

  129. 01:41:10.208 : Chapter 12

  130. 01:50:31.166 : Chapter 13

  131. 01:55:08.458 : Chapter 14


文件下载


除非特别注明,本文『危城[国粤语配音/中文字幕].Call.of.Heroes.2016.1080p.BluRay.x265.10bit.DTS.2Audio 9.28GB』来源于互联网机器人自动抓取,非本站原创。 浮游电影网不对本文拥有版权,如有侵犯,请联系邮箱:fuyouu#yandex.com[#换成@]投诉。我们会在15个工作日内删除。 但烦请转载时请标明出处:“本文转载于『浮游电影网』,原文地址:https://www.fuyouu.com/14241.html

评论吧骚年!

发表你的见解   

昵称*

E-mail*(建议输入,以便收到博主回复的提示邮件)

验证码*

您可以使用eMule或eMule Mod(Windows)、aMule(Win、Linux、Mac)等软件下载eD2k链接。。
eMule收藏集(.emulecollection)文件是您选中的所有链接的列表文件。eMule可以直接下载它们。
按住SHIFT键选择可以选中多个选择框。
可用文件名和大小选择器来选择文件。
文件名选择器帮您根据文件名称或后缀来选择文件。不分大小写。
符号使用:
和:空格( )、+
不包含:-
或:|
转义:一对英文引号("");
匹配开头:^
匹配结尾:$
例如:
选中所有名称中包含有“eMule”或“0.49c”字眼,但不包含有“exe”字眼的:emule|0.49c -exe
选中所有名称的开头是“eMule”,结尾是“0.49c”的:^emule 0.49c$
选中所有名称中带有“eMule 0.49c”的(必须是“eMule 0.49c”,中间没有别的字符,不能是“eMule fake 0.49c”),需要转义:"emule 0.49c"
大小选择器帮您根据文件大小选择文件。