当前位置: 首页 >> 欧美电影 >> 姜戈[中文字幕].Django.1966.2160p.HDR.UHD.BluRay.DTS.x265-10bit 10.29GB >> 正文

姜戈[中文字幕].Django.1966.2160p.HDR.UHD.BluRay.DTS.x265-10bit 10.29GB

2021年09月07日 21:52:29     电影发布:来源于网络     电影分类:欧美电影     评论(0)    

image.png

◎译 名 姜戈 / 迪亚戈

◎片 名 Django

◎年 代 1966

◎产 地 意大利 / 西班牙

◎类 别 西部

◎语 言 意大利语

◎上映日期 1966-11-02

◎IMDb链接 https://www.imdb.com/title/tt0060315/

◎豆瓣评分 7.6/10 (3711人评价)

◎豆瓣链接 https://movie.douban.com/subject/1963163/

◎片 长 Spain: 87 分钟(censored version)

◎导 演 赛尔乔·科尔布奇 Sergio Corbucci (id:1036926)

◎编 剧 赛尔乔·科尔布奇 Sergio Corbucci (id:1036926)

布鲁诺·科尔布奇 Bruno Corbucci (id:1031183)

皮耶罗·里易欣 Piero Vivarelli (id:1033875)

何塞·吉铁雷斯·马埃索 José Gutiérrez Maesso (id:1020004)

弗兰科·罗塞蒂 Franco Rossetti (id:1030130)

◎演 员 弗兰科·内罗 Franco Nero (id:1036400)

何塞·博达洛 José Bódalo (id:1069420)

洛雷达娜·努斯齐亚克 Loredana Nusciak (id:1076958)

安赫尔·阿尔瓦雷斯 ángel álvarez (id:1060632)

吉诺·佩尔尼切 Gino Pernice (id:1128797)

Rafael Albaicín Rafael Albaicín (id:1060198)

Flora Carosello Flora Carosello (id:1344133)

José Terrón José Terrón (id:1193909)

卢西亚诺·罗西 Luciano Rossi (id:1111252)

Cris Huerta Cris Huerta (id:1109324)

Lucio De Santis Lucio De Santis (id:1083360)

José Canalejas José Canalejas (id:1078818)

爱德华多·法哈多 Eduardo Fajardo (id:1081953)

赛尔乔·科尔布奇 Sergio Corbucci (id:1036926)

路易斯·巴卡洛夫 Luis Enríquez Bacalov (id:1002960)

恩佐·巴博尼 Enzo Barboni (id:1010003)

尼诺·巴拉利 Nino Baragli (id:1277857)

Sergio Montanari Sergio Montanari (id:1030655)

Francisco Canet Francisco Canet (id:1053647)

卡罗·斯密 Carlo Simi (id:1043001)

Marcella De Marchis Marcella De Marchis (id:1015165)

卡罗·斯密 Carlo Simi (id:1043001)

鲁杰罗·德奥达托 Ruggero Deodato (id:1048256)

◎标 签 意大利 / 西部片 / 西部 / 1966 / 意大利电影 / 塞吉奥·科布奇 / 1960s / 动作

◎简 介

荒凉的旷野,一群暴虐的劫匪正在鞭挞一位美丽的姑娘玛丽亚(萝蕾丹娜·卡波莱特 Loredana Cappelletti饰)。幸得迪亚戈(弗兰科·尼罗 Franco Nero饰)的解救。他神秘而冷峻,拖着一副棺材漫步在泥泞的荒野上。迪亚戈带着玛丽亚来到荒凉的小镇,人们对他的到来充满好奇,更对这副棺材里隐藏的秘密而惶惶不安。

本片作为意大利西部片的经典暴力之作,曾在世界多国遭到禁映。2012年,鬼才导演昆汀·塔伦蒂诺拍摄的《被解放的姜戈》,向此片致敬。

  1. ##### MediaInfo ######

  2. General

  3. Unique ID : 71359097501275520179100642487077928166 (0x35AF432402804FB39CCD500786837CE6)

  4. Complete name : Django.1966.2160p.HDR.UHD.BluRay.DTS.x265-10bit-10007@BBQDDQ.COM.mkv

  5. Format : Matroska

  6. Format version : Version 4

  7. File size : 10.3 GiB

  8. Duration : 1 h 31 min

  9. Overall bit rate mode : Variable

  10. Overall bit rate : 16.1 Mb/s

  11. Movie name : Django 1966 2160p HDR UHD BluRay DTS x265-10bit-10007@BBQDDQ.COM

  12. Encoded date : UTC 2021-09-06 05:22:42

  13. Writing application : mkvmerge v38.0.0 ('The Silent Type') 64-bit

  14. Writing library : libebml v1.3.9 + libmatroska v1.5.2


  15. Video

  16. ID : 1

  17. Format : HEVC

  18. Format/Info : High Efficiency Video Coding

  19. Format profile : Main 10@L5.1@High

  20. HDR format : SMPTE ST 2086, HDR10 compatible

  21. Codec ID : V_MPEGH/ISO/HEVC

  22. Duration : 1 h 31 min

  23. Bit rate : 15.0 Mb/s

  24. Width : 3 600 pixels

  25. Height : 2 160 pixels

  26. Display aspect ratio : 5:3

  27. Frame rate mode : Constant

  28. Frame rate : 23.976 (24000/1001/53354) FPS

  29. Color space : YUV

  30. Chroma subsampling : 4:2:0

  31. Bit depth : 10 bits

  32. Bits/(Pixel*Frame) : 0.080

  33. Stream size : 9.58 GiB (93%)

  34. Title : @HDSky

  35. Writing library : x265 - H.265/HEVC codec

  36. Default : Yes

  37. Forced : No

  38. Color range : Limited

  39. Color primaries : BT.2020

  40. Transfer characteristics : PQ

  41. Matrix coefficients : BT.2020 non-constant

  42. Mastering display color primaries : BT.2020

  43. Mastering display luminance : min: 0.0020 cd/m2, max: 1000 cd/m2

  44. Maximum Content Light Level : 739 cd/m2

  45. Maximum Frame-Average Light Level : 331 cd/m2


  46. Audio

  47. ID : 2

  48. Format : DTS XLL

  49. Format/Info : Digital Theater Systems

  50. Commercial name : DTS-HD Master Audio

  51. Codec ID : A_DTS

  52. Duration : 1 h 31 min

  53. Bit rate mode : Variable

  54. Bit rate : 1 070 kb/s

  55. Channel(s) : 1 channel

  56. Channel layout : C

  57. Sampling rate : 48.0 kHz

  58. Frame rate : 93.750 FPS (512 SPF)

  59. Bit depth : 24 bits

  60. Compression mode : Lossless

  61. Stream size : 702 MiB (7%)

  62. Title : Italian

  63. Language : Italian

  64. Default : Yes

  65. Forced : No


  66. Text #1

  67. ID : 3

  68. Format : PGS

  69. Muxing mode : zlib

  70. Codec ID : S_HDMV/PGS

  71. Codec ID/Info : Picture based subtitle format used on BDs/HD-DVDs

  72. Duration : 1 h 26 min

  73. Bit rate : 18.3 kb/s

  74. Count of elements : 933

  75. Stream size : 11.3 MiB (0%)

  76. Title : CHS

  77. Language : Chinese

  78. Default : Yes

  79. Forced : No


  80. Text #2

  81. ID : 4

  82. Format : PGS

  83. Muxing mode : zlib

  84. Codec ID : S_HDMV/PGS

  85. Codec ID/Info : Picture based subtitle format used on BDs/HD-DVDs

  86. Duration : 1 h 26 min

  87. Bit rate : 19.0 kb/s

  88. Count of elements : 933

  89. Stream size : 11.7 MiB (0%)

  90. Title : CHT

  91. Language : Chinese

  92. Default : No

  93. Forced : No


  94. Menu

  95. 00:00:00.000 : en:Chapter 01

  96. 00:08:26.129 : en:Chapter 02

  97. 00:14:09.222 : en:Chapter 03

  98. 00:22:36.270 : en:Chapter 04

  99. 00:29:18.213 : en:Chapter 05

  100. 00:38:14.166 : en:Chapter 06

  101. 00:49:53.572 : en:Chapter 07

  102. 00:55:10.806 : en:Chapter 08

  103. 01:02:40.715 : en:Chapter 09

  104. 01:09:09.770 : en:Chapter 10

  105. 01:17:54.627 : en:Chapter 11

  106. 01:23:47.188 : en:Chapter 12



文件下载


除非特别注明,本文『姜戈[中文字幕].Django.1966.2160p.HDR.UHD.BluRay.DTS.x265-10bit 10.29GB』来源于互联网机器人自动抓取,非本站原创。 浮游电影网不对本文拥有版权,如有侵犯,请联系邮箱:fuyouu#yandex.com[#换成@]投诉。我们会在15个工作日内删除。 但烦请转载时请标明出处:“本文转载于『浮游电影网』,原文地址:https://www.fuyouu.com/14240.html

评论吧骚年!

发表你的见解   

昵称*

E-mail*(建议输入,以便收到博主回复的提示邮件)

验证码*

您可以使用eMule或eMule Mod(Windows)、aMule(Win、Linux、Mac)等软件下载eD2k链接。。
eMule收藏集(.emulecollection)文件是您选中的所有链接的列表文件。eMule可以直接下载它们。
按住SHIFT键选择可以选中多个选择框。
可用文件名和大小选择器来选择文件。
文件名选择器帮您根据文件名称或后缀来选择文件。不分大小写。
符号使用:
和:空格( )、+
不包含:-
或:|
转义:一对英文引号("");
匹配开头:^
匹配结尾:$
例如:
选中所有名称中包含有“eMule”或“0.49c”字眼,但不包含有“exe”字眼的:emule|0.49c -exe
选中所有名称的开头是“eMule”,结尾是“0.49c”的:^emule 0.49c$
选中所有名称中带有“eMule 0.49c”的(必须是“eMule 0.49c”,中间没有别的字符,不能是“eMule fake 0.49c”),需要转义:"emule 0.49c"
大小选择器帮您根据文件大小选择文件。