当前位置: 首页 >> 欧美电影 >> 流行歌星:永不停歇[中文字幕].Popstar.Never.Stop.Never.Stopping.2016.1080p.BluRay.x265.10bit.DTS 5.65GB >> 正文

流行歌星:永不停歇[中文字幕].Popstar.Never.Stop.Never.Stopping.2016.1080p.BluRay.x265.10bit.DTS 5.65GB

2021年09月07日 21:50:46     电影发布:来源于网络     电影分类:欧美电影     评论(0)    

流行歌星:永不停歇[中文字幕].Popstar.Never.Stop.Never.Stopping.2016.1080p.BluRay.x265.10bit.DTS 5.65GB 音乐片 喜剧片 欧美电影  第1张

◎译 名 流行歌星:永不停歇 / Conner4Real / 绝不轻易狗带(豆友译名)

◎片 名 Popstar: Never Stop Never Stopping

◎年 代 2016

◎产 地 美国

◎类 别 喜剧 / 音乐

◎语 言 英语

◎上映日期 2016-06-03(美国)

◎IMDb链接 https://www.imdb.com/title/tt3960412/

◎豆瓣评分 7.1/10 (2499人评价)

◎豆瓣链接 https://movie.douban.com/subject/25955508/

◎片 长 87分钟

◎导 演 阿吉瓦·沙弗尔 Akiva Schaffer (id:1036652)

乔玛·塔科内 Jorma Taccone (id:1031911)

◎编 剧 安迪·萨姆伯格 Andy Samberg (id:1025187)

阿吉瓦·沙弗尔 Akiva Schaffer (id:1036652)

乔玛·塔科内 Jorma Taccone (id:1031911)

◎演 员 安迪·萨姆伯格 Andy Samberg (id:1025187)

乔玛·塔科内 Jorma Taccone (id:1031911)

阿吉瓦·沙弗尔 Akiva Schaffer (id:1036652)

亚当·莱文 Adam Levine (id:1174312)

萨拉·西尔弗曼 Sarah Silverman (id:1036448)

贾斯汀·汀布莱克 Justin Timberlake (id:1040987)

蒂姆·麦道斯 Tim Meadows (id:1004695)

玛娅·鲁道夫 Maya Rudolph (id:1025183)

琼·库萨克 Joan Cusack (id:1027139)

伊莫琴·普茨 Imogen Poots (id:1274510)

克里斯·里德 Chris Redd (id:1359535)

埃德加·布莱克蒙 Edgar Blackmon (id:1359536)

詹姆斯·巴克利 James Buckley (id:1068879)

迈克·比尔比利亚 Mike Birbiglia (id:1183592)

比尔·哈德尔 Bill Hader (id:1017902)

红粉佳人 Pink (id:1129257)

艾玛·斯通 Emma Stone (id:1040506)

玛丽亚·凯莉 Mariah Carey (id:1021994)

亚瑟·雷蒙德 Usher Raymond (id:1027200)

席尔 Seal (id:1004921)

马丁·辛 Martin Sheen (id:1054274)

史努比狗狗 Snoop Dogg (id:1027838)

威尔·福特 Will Forte (id:1019039)

西蒙·考威尔 Simon Cowell (id:1027316)

吉米·法伦 Jimmy Fallon (id:1049664)

嘉丽·安德伍德 Carrie Underwood (id:1031177)

罗伯特·菲茨杰拉德·迪格斯 RZA (id:1009393)

阿肯 Akon (id:1191316)

迈克尔·波顿 Michael Bolton (id:1032261)

50分 50 Cent (id:1009282)

艾略特·史密斯 Elliott Smith (id:1359643)

吉尔-米歇尔·梅里恩 Jill-Michele Melean (id:1123084)

莉莉·塞佩 Lili Sepe (id:1349436)

布兰登·范弗利特 Brandon Van Vliet (id:1260352)

卡梅伦·布林克曼 Cameron Brinkman (id:1347738)

克雷格·阿尔伯特 Craig Alpert (id:1408351)

◎标 签 喜剧 / 美国 / 音乐 / 伪纪录片 / 2016 / 搞笑 / 伪纪录 / 三表哥

◎简 介

成名于《周六夜现场》(Saturday Night Live)节目中的三人说唱组合“孤岛”(The Lonely Island)即将开拍自己的电影,这部影片由贾德·阿帕罗(Judd Apatow)参与制片,环球公司负责发行。

“孤岛”组合由《周六夜现场》演员安迪·萨姆博格(Andy Samberg)、阿吉瓦·沙弗尔(Akiva Schaffer)、乔玛·塔昆(Jorma Taccone)三人组成,以搞笑见长,他们出过三张录音室专辑,代表作有“D*ck in a Box”等。

据悉这部《孤岛组合》的电影将由组合成员阿吉瓦·沙弗尔、乔玛·塔昆联合执导,讲述的是发生在“音乐世界里的事儿”。

  1. ##### MediaInfo ######

  2. General

  3. Unique ID : 148608978160586038048451671783973785054 (0x6FCD0C5092591225C3AD0A12A7530DDE)

  4. Complete name : Popstar.Never.Stop.Never.Stopping.2016.1080p.BluRay.x265.10bit.DTS-10017@BBQDDQ.COM.mkv

  5. Format : Matroska

  6. Format version : Version 4

  7. File size : 5.64 GiB

  8. Duration : 1 h 26 min

  9. Overall bit rate : 9 343 kb/s

  10. Movie name : Popstar: Never Stop, / Never Stopping

  11. Encoded date : UTC 2021-09-06 04:00:15

  12. Writing application : mkvmerge v61.0.0 ('So') 64-bit

  13. Writing library : libebml v1.4.2 + libmatroska v1.6.4

  14. Cover : Yes

  15. Attachments : cover.jpg


  16. Video

  17. ID : 1

  18. Format : HEVC

  19. Format/Info : High Efficiency Video Coding

  20. Format profile : Main 10@L4@Main

  21. Codec ID : V_MPEGH/ISO/HEVC

  22. Duration : 1 h 26 min

  23. Bit rate : 7 670 kb/s

  24. Width : 1 920 pixels

  25. Height : 800 pixels

  26. Display aspect ratio : 2.40:1

  27. Frame rate mode : Constant

  28. Frame rate : 23.976 (24000/1001/53354) FPS

  29. Color space : YUV

  30. Chroma subsampling : 4:2:0

  31. Bit depth : 10 bits

  32. Bits/(Pixel*Frame) : 0.208

  33. Stream size : 4.63 GiB (82%)

  34. Writing library : x265 3.5+2-g2b25c9ba0+45:[Windows][GCC 10.2.0][64 bit] Yuuki 10bit+8bit+12bit

  35. Encoding settings : rc=crf / crf=18.0000 / qcomp=0.60 / qpstep=4 / stats-write=0 / stats-read=0 / no-lossless / no-cu-lossless / aq-mode=3 / aq-strength=0.90 / cbqpoffs=0 / crqpoffs=0 / ipratio=1.40 / pbratio=1.30 / psy-rd=2.00 / psy-rdoq=0.00 / deblock=0:0 / ref=6 / limit-refs=1 / no-limit-modes / bframes=8 / b-adapt=2 / bframe-bias=0 / b-pyramid / b-intra / weightp / weightb / min-keyint=24 / max-keyint=240 / rc-lookahead=24 / gop-lookahead=0 / NTMzNTQ=uuDQuD2mJt9fsCf / scenecut=40 / hist-scenecut=0 / radl=0 / max-cu-size=64 / min-cu-size=8 / me=3 / subme=7 / merange=48 / rdoq-level=0 / rd=4 / rdpenalty=0 / dynamic-rd=0.00 / no-rd-refine / ----- / cutree / sao / no-rect / no-amp / no-open-gop / wpp / no-pmode / no-pme / no-psnr / no-ssim / nr-intra=0 / nr-inter=0 / no-constrained-intra / no-strong-intra-smoothing / max-tu-size=32 / tu-inter-depth=1 / tu-intra-depth=1 / limit-tu=0 / qg-size=32 / qpmax=69 / qpmin=0 / ----- / cpuid=533541111039 / frame-threads=4 / numa-pools=+ / log-level=2 / input-csp=1 / input-res=1920x800 / interlace=0 / level-idc=0 / high-tier=1 / uhd-bd=0 / no-allow-non-conformance / no-repeat-headers / aud / no-hrd / info / hash=0 / no-temporal-layers / lookahead-slices=0 / no-splice / no-intra-refresh / no-ssim-rd / signhide / no-tskip / max-merge=3 / temporal-mvp / no-frame-dup / no-hme / no-analyze-src-pics / no-sao-non-deblock / selective-sao=4 / early-skip / rskip / no-fast-intra / no-tskip-fast / no-splitrd-skip / zone-count=0 / no-strict-cbr / no-rc-grain / no-const-vbv / sar=0 / overscan=0 / videoformat=5 / range=0 / colorprim=2 / transfer=2 / colormatrix=2 / chromaloc=0 / display-window=0 / cll=0,0 / min-luma=0 / max-luma=1023 / log2-max-poc-lsb=8 / vui-timing-info / vui-hrd-info / slices=1 / no-opt-qp-pps / no-opt-ref-list-length-pps / no-multi-pass-opt-rps / scenecut-bias=0.05 / hist-threshold=0.03 / no-opt-cu-delta-qp / no-aq-motion / no-hdr10 / no-hdr10-opt / no-dhdr10-opt / no-idr-recovery-sei / analysis-reuse-level=0 / analysis-save-reuse-level=0 / analysis-load-reuse-level=0 / scale-factor=0 / refine-intra=0 / refine-inter=0 / refine-mv=1 / refine-ctu-distortion=0 / no-limit-sao / ctu-info=0 / no-lowpass-dct / refine-analysis-type=0 / copy-pic=1 / max-ausize-factor=1.0 / no-dynamic-refine / no-single-sei / no-hevc-aq / no-svt / no-field / qp-adaptation-range=1.00 / scenecut-aware-qp=0conformance-window-offsets / right=0 / bottom=0 / NTMzNTQ= / decoder-max-rate=0 / no-vbv-live-multi-pass

  36. Default : Yes

  37. Forced : No


  38. Audio

  39. ID : 2

  40. ID in the original source medium : 4352 (0x1100)

  41. Format : DTS

  42. Format/Info : Digital Theater Systems

  43. Codec ID : A_DTS

  44. Duration : 1 h 26 min

  45. Bit rate mode : Constant

  46. Bit rate : 1 509 kb/s

  47. Channel(s) : 6 channels

  48. Channel layout : C L R Ls Rs LFE

  49. Sampling rate : 48.0 kHz

  50. Frame rate : 93.750 FPS (512 SPF)

  51. Bit depth : 24 bits

  52. Compression mode : Lossy

  53. Stream size : 934 MiB (16%)

  54. Language : English

  55. Default : Yes

  56. Forced : No

  57. Original source medium : Blu-ray


  58. Text #1

  59. ID : 3

  60. ID in the original source medium : 4613 (0x1205)

  61. Format : PGS

  62. Muxing mode : zlib

  63. Codec ID : S_HDMV/PGS

  64. Codec ID/Info : Picture based subtitle format used on BDs/HD-DVDs

  65. Duration : 1 h 26 min

  66. Bit rate : 94.3 kb/s

  67. Count of elements : 2518

  68. Stream size : 58.3 MiB (1%)

  69. Title : chs&eng

  70. Language : Chinese

  71. Default : Yes

  72. Forced : No

  73. Original source medium : Blu-ray


  74. Text #2

  75. ID : 4

  76. ID in the original source medium : 4614 (0x1206)

  77. Format : PGS

  78. Muxing mode : zlib

  79. Codec ID : S_HDMV/PGS

  80. Codec ID/Info : Picture based subtitle format used on BDs/HD-DVDs

  81. Duration : 1 h 26 min

  82. Bit rate : 94.7 kb/s

  83. Count of elements : 2518

  84. Stream size : 58.6 MiB (1%)

  85. Title : cht&eng

  86. Language : Chinese

  87. Default : No

  88. Forced : No

  89. Original source medium : Blu-ray


  90. Text #3

  91. ID : 5

  92. ID in the original source medium : 4615 (0x1207)

  93. Format : PGS

  94. Muxing mode : zlib

  95. Codec ID : S_HDMV/PGS

  96. Codec ID/Info : Picture based subtitle format used on BDs/HD-DVDs

  97. Duration : 1 h 26 min

  98. Bit rate : 54.9 kb/s

  99. Count of elements : 2514

  100. Stream size : 34.0 MiB (1%)

  101. Title : chs

  102. Language : Chinese

  103. Default : No

  104. Forced : No

  105. Original source medium : Blu-ray


  106. Text #4

  107. ID : 6

  108. ID in the original source medium : 4616 (0x1208)

  109. Format : PGS

  110. Muxing mode : zlib

  111. Codec ID : S_HDMV/PGS

  112. Codec ID/Info : Picture based subtitle format used on BDs/HD-DVDs

  113. Duration : 1 h 26 min

  114. Bit rate : 55.4 kb/s

  115. Count of elements : 2514

  116. Stream size : 34.2 MiB (1%)

  117. Title : cht

  118. Language : Chinese

  119. Default : No

  120. Forced : No

  121. Original source medium : Blu-ray


  122. Text #5

  123. ID : 7

  124. ID in the original source medium : 4608 (0x1200)

  125. Format : PGS

  126. Muxing mode : zlib

  127. Codec ID : S_HDMV/PGS

  128. Codec ID/Info : Picture based subtitle format used on BDs/HD-DVDs

  129. Duration : 1 h 25 min

  130. Bit rate : 76.5 kb/s

  131. Count of elements : 3840

  132. Stream size : 47.0 MiB (1%)

  133. Title : eng

  134. Language : English

  135. Default : No

  136. Forced : No

  137. Original source medium : Blu-ray


  138. Menu

  139. 00:00:00.000 : 第 01 章

  140. 00:05:54.479 : 第 02 章

  141. 00:09:26.566 : 第 03 章

  142. 00:14:38.168 : 第 04 章

  143. 00:19:34.214 : 第 05 章

  144. 00:24:49.279 : 第 06 章

  145. 00:28:27.539 : 第 07 章

  146. 00:31:45.069 : 第 08 章

  147. 00:36:11.669 : 第 09 章

  148. 00:40:15.579 : 第 10 章

  149. 00:43:03.914 : 第 11 章

  150. 00:46:44.092 : 第 12 章

  151. 00:51:06.813 : 第 13 章

  152. 00:54:38.775 : 第 14 章

  153. 00:59:17.845 : 第 15 章

  154. 01:05:15.161 : 第 16 章

  155. 01:08:43.077 : 第 17 章

  156. 01:13:13.597 : 第 18 章

  157. 01:16:52.941 : 第 19 章

  158. 01:22:29.736 : 第 20 章


文件下载


除非特别注明,本文『流行歌星:永不停歇[中文字幕].Popstar.Never.Stop.Never.Stopping.2016.1080p.BluRay.x265.10bit.DTS 5.65GB』来源于互联网机器人自动抓取,非本站原创。 浮游电影网不对本文拥有版权,如有侵犯,请联系邮箱:fuyouu#yandex.com[#换成@]投诉。我们会在15个工作日内删除。 但烦请转载时请标明出处:“本文转载于『浮游电影网』,原文地址:https://www.fuyouu.com/14239.html

评论吧骚年!

发表你的见解   

昵称*

E-mail*(建议输入,以便收到博主回复的提示邮件)

验证码*

您可以使用eMule或eMule Mod(Windows)、aMule(Win、Linux、Mac)等软件下载eD2k链接。。
eMule收藏集(.emulecollection)文件是您选中的所有链接的列表文件。eMule可以直接下载它们。
按住SHIFT键选择可以选中多个选择框。
可用文件名和大小选择器来选择文件。
文件名选择器帮您根据文件名称或后缀来选择文件。不分大小写。
符号使用:
和:空格( )、+
不包含:-
或:|
转义:一对英文引号("");
匹配开头:^
匹配结尾:$
例如:
选中所有名称中包含有“eMule”或“0.49c”字眼,但不包含有“exe”字眼的:emule|0.49c -exe
选中所有名称的开头是“eMule”,结尾是“0.49c”的:^emule 0.49c$
选中所有名称中带有“eMule 0.49c”的(必须是“eMule 0.49c”,中间没有别的字符,不能是“eMule fake 0.49c”),需要转义:"emule 0.49c"
大小选择器帮您根据文件大小选择文件。