当前位置: 首页 >> 欧美电影 >> 走出非洲[中文字幕].Out.of.Africa.1985.1080p.BluRay.x265.10bit.DD/5.1.MNHD 9.64GB >> 正文

走出非洲[中文字幕].Out.of.Africa.1985.1080p.BluRay.x265.10bit.DD/5.1.MNHD 9.64GB

2021年09月06日 22:11:02     电影发布:来源于网络     电影分类:欧美电影     评论(0)    

走出非洲[中文字幕].Out.of.Africa.1985.1080p.BluRay.x265.10bit.DD/5.1.MNHD 9.64GB 传记 冒险片 爱情片 剧情片 欧美电影  第1张

◎译 名 走出非洲 / 非洲之旅(港) / 远离非洲(台)

◎片 名 Out of Africa

◎年 代 1985

◎产 地 美国

◎类 别 剧情 / 爱情 / 传记 / 冒险

◎语 言 英语 / 斯瓦希里语

◎上映日期 1985-12-10(洛杉矶首映) / 1985-12-20(美国)

◎IMDb链接 https://www.imdb.com/title/tt0089755/

◎豆瓣评分 8.6/10 (78165人评价)

◎豆瓣链接 https://movie.douban.com/subject/1291840/

◎片 长 161分钟

◎导 演 西德尼·波拉克 Sydney Pollack (id:1010608)

◎编 剧 卡琳·布里克森 Karen Blixen (id:1000890)

科特·路德特克 Kurt Luedtke (id:1028634)

大卫·雷菲尔德 David Rayfiel (id:1295295)

◎演 员 梅丽尔·斯特里普 Meryl Streep (id:1054437)

罗伯特·雷德福 Robert Redford (id:1053617)

克劳斯·马利亚·布朗道尔 Klaus Maria Brandauer (id:1010714)

迈克尔·基臣 Michael Kitchen (id:1041237)

马利克·鲍恩斯 Malick Bowens (id:1343716)

迈克尔·高夫 Michael Gough (id:1055859)

苏珊娜·汉密尔顿 Suzanna Hamilton (id:1331010)

瑞切尔·凯姆普森 Rachel Kempson (id:1018335)

格拉汉姆·克罗登 Graham Crowden (id:1075250)

莱斯利·菲利普斯 Leslie Phillips (id:1002828)

谢恩·里默 Shane Rimmer (id:1342805)

多纳尔·麦卡恩 Donal McCann (id:1120714)

Kenneth Mason Kenneth Mason (id:1119981)

Tristram Jellinek Tristram Jellinek (id:1113969)

史蒂芬·B·格里姆斯 Stephen B. Grimes (id:1001749)

Annabel Maule Annabel Maule (id:1122169)

Benny Young Benny Young (id:1167097)

Niven Boyd Niven Boyd (id:1076412)

伊曼 Iman (id:1022743)

约翰·巴里 John Barry (id:1041275)

佩姆布罗克·J·赫林 Pembroke J. Herring (id:1286514)

谢尔顿·卡恩 Sheldon Kahn (id:1288017)

Herbert Westbrook Herbert Westbrook (id:1300736)

Cliff Robinson Cliff Robinson (id:1295811)

乔西·麦克阿温 Josie MacAvin (id:1290591)

米兰拉·坎农诺 Milena Canonero (id:1279999)

Mary Hillman Mary Hillman (id:1286646)

Gary Liddiard Gary Liddiard (id:1290022)

史蒂夫·高利 Steve Gawley (id:1284643)

马克·弗伦德 Mark Freund (id:1284190)

◎标 签 爱情 / 经典 / 美国 / 走出非洲 / 非洲 / MerylStreep / 美国电影 / 剧情

◎简 介

凯伦(梅丽尔·斯特里普 Meryl Streep 饰)是一个爱慕虚荣的富家女,为了得到一个男爵夫人的称号她离开故土丹麦远嫁东非肯尼亚,然而男爵夫人的称号并没有给凯伦带来美满的婚姻生活。幸运的是在那片广袤的土地上,凯伦可以经常外出打猎、探险,她渐渐的爱上了这片神奇的土地。 在一次打猎遇险时,凯伦邂逅了年青的英国贵族邓尼斯(罗伯特·雷德福 Robert Redford 饰)。在遭遇婚姻的破裂和丈夫出走之后,凯伦独立承担起经营庄园的任务,在劳动的过程中,凯伦渐渐的与种植园里的仆人们产生了深厚友谊,而她与邓尼斯的关系似乎也有了进展。然尔命运之神并没有从此让凯伦一帆风顺,一次大火让她不得不出卖庄园从而缓解经济的拮据,后来邓尼斯驾机意外身亡又一次给了她沉重的打击。在经历了生命的磨炼之后,凯伦最终告别了那片她洒下青春和热情的土地……

该片在1986年的第58届奥斯...

◎获奖情况 (共11项)

第58届奥斯卡金像奖 (1986)

最佳影片

└──西德尼·波拉克 (id:1010608)

最佳导演

└──西德尼·波拉克 (id:1010608)

最佳女主角(提名)

└──梅丽尔·斯特里普 (id:1054437)

最佳男配角(提名)

└──克劳斯·马利亚·布朗道尔 (id:1010714)

最佳改编剧本

└──科特·路德特克 (id:1028634)

最佳摄影

└──大卫·沃特金 (id:1003518)

最佳剪辑(提名)

最佳音响

最佳艺术指导

最佳服装设计(提名)

└──米兰拉·坎农诺 (id:1279999)

最佳原创配乐

└──约翰·巴里 (id:1041275)

  1. ##### MediaInfo ######

  2. General

  3. Unique ID : 214163124533299310852494058675870481146 (0xA11E51448C7CDF85B58F3FD34305BAFA)

  4. Complete name : Out.of.Africa.1985.1080p.BluRay.x265.10bit.DD+5.1.MNHD-10018@BBQDDQ.COM.mkv

  5. Format : Matroska

  6. Format version : Version 4

  7. File size : 9.64 GiB

  8. Duration : 2 h 41 min

  9. Overall bit rate : 8 571 kb/s

  10. Encoded date : UTC 2021-09-04 03:51:15

  11. Writing application : mkvmerge v61.0.0 ('So') 64-bit

  12. Writing library : libebml v1.4.2 + libmatroska v1.6.4


  13. Video

  14. ID : 1

  15. Format : HEVC

  16. Format/Info : High Efficiency Video Coding

  17. Format profile : Main 10@L5.1@High

  18. Codec ID : V_MPEGH/ISO/HEVC

  19. Duration : 2 h 41 min

  20. Bit rate : 7 509 kb/s

  21. Width : 1 920 pixels

  22. Height : 1 040 pixels

  23. Display aspect ratio : 1.85:1

  24. Frame rate mode : Constant

  25. Frame rate : 23.976 (24000/1001/53354) FPS

  26. Color space : YUV

  27. Chroma subsampling : 4:2:0

  28. Bit depth : 10 bits

  29. Bits/(Pixel*Frame) : 0.157

  30. Stream size : 8.45 GiB (88%)

  31. Writing library : x265 3.5+2-g2b25c9ba0+45:[Windows][GCC 10.2.0][64 bit] Yuuki 10bit

  32. Encoding settings : rc=crf / crf=23.0000 / qcomp=0.65 / qpstep=4 / stats-write=0 / stats-read=0 / vbv-maxrate=160000 / vbv-bufsize=160000 / vbv-init=0.9 / min-vbv-fullness=50.0 / max-vbv-fullness=80.0 / crf-max=0.0 / crf-min=0.0 / no-lossless / no-cu-lossless / aq-mode=1 / aq-strength=1.00 / cbqpoffs=-2 / crqpoffs=-2 / ipratio=1.30 / pbratio=1.20 / psy-rd=1.50 / psy-rdoq=1.00 / deblock=-3:-3 / ref=6 / limit-refs=0 / no-limit-modes / bframes=8 / b-adapt=2 / bframe-bias=0 / b-pyramid / b-intra / weightp / weightb / min-keyint=1 / max-keyint=250 / rc-lookahead=100 / gop-lookahead=0 / NTMzNTQ=uuDQuD2mJt9fsCf / scenecut=40 / hist-scenecut=0 / radl=0 / max-cu-size=32 / min-cu-size=8 / me=3 / subme=7 / merange=57 / rdoq-level=2 / rd=4 / rdpenalty=0 / dynamic-rd=0.00 / no-rd-refine / ----- / no-cutree / no-sao / no-rect / no-amp / no-open-gop / wpp / pmode / no-pme / no-psnr / no-ssim / nr-intra=0 / nr-inter=0 / no-constrained-intra / strong-intra-smoothing / max-tu-size=32 / tu-inter-depth=4 / tu-intra-depth=4 / limit-tu=0 / qg-size=8 / qpmax=69 / qpmin=0 / ----- / cpuid=533541111039 / frame-threads=4 / numa-pools=16 / log-level=2 / input-csp=1 / input-res=1920x1040 / interlace=0 / level-idc=0 / high-tier=1 / uhd-bd=0 / no-allow-non-conformance / no-repeat-headers / no-aud / no-hrd / info / hash=0 / no-temporal-layers / lookahead-slices=0 / no-splice / no-intra-refresh / no-ssim-rd / signhide / tskip / max-merge=5 / temporal-mvp / no-frame-dup / no-hme / no-analyze-src-pics / no-sao-non-deblock / selective-sao=0 / no-early-skip / no-rskip / no-fast-intra / no-tskip-fast / no-splitrd-skip / zone-count=0 / no-strict-cbr / no-rc-grain / no-const-vbv / sar=0 / overscan=0 / videoformat=5 / range=0 / colorprim=1 / transfer=1 / colormatrix=1 / chromaloc=0 / display-window=0 / cll=0,0 / min-luma=0 / max-luma=1023 / log2-max-poc-lsb=8 / vui-timing-info / vui-hrd-info / slices=1 / no-opt-qp-pps / no-opt-ref-list-length-pps / no-multi-pass-opt-rps / scenecut-bias=0.05 / hist-threshold=0.03 / no-opt-cu-delta-qp / no-aq-motion / no-hdr10 / no-hdr10-opt / no-dhdr10-opt / no-idr-recovery-sei / analysis-reuse-level=0 / analysis-save-reuse-level=0 / analysis-load-reuse-level=0 / scale-factor=0 / refine-intra=0 / refine-inter=0 / refine-mv=1 / refine-ctu-distortion=0 / no-limit-sao / ctu-info=0 / no-lowpass-dct / refine-analysis-type=0 / copy-pic=1 / max-ausize-factor=1.0 / no-dynamic-refine / no-single-sei / no-hevc-aq / no-svt / no-field / qp-adaptation-range=1.00 / scenecut-aware-qp=0conformance-window-offsets / right=0 / bottom=0 / NTMzNTQ= / decoder-max-rate=0 / no-vbv-live-multi-pass

  33. Default : Yes

  34. Forced : No

  35. Color range : Limited

  36. Color primaries : BT.709

  37. Transfer characteristics : BT.709

  38. Matrix coefficients : BT.709


  39. Audio

  40. ID : 2

  41. Format : E-AC-3

  42. Format/Info : Enhanced AC-3

  43. Commercial name : Dolby Digital Plus

  44. Codec ID : A_EAC3

  45. Duration : 2 h 41 min

  46. Bit rate mode : Constant

  47. Bit rate : 1 023 kb/s

  48. Channel(s) : 6 channels

  49. Channel layout : L R C LFE Ls Rs

  50. Sampling rate : 48.0 kHz

  51. Frame rate : 93.750 FPS (512 SPF)

  52. Compression mode : Lossy

  53. Stream size : 1.15 GiB (12%)

  54. Language : English

  55. Service kind : Complete Main

  56. Default : Yes

  57. Forced : No


  58. Text #1

  59. ID : 3

  60. Format : PGS

  61. Muxing mode : zlib

  62. Codec ID : S_HDMV/PGS

  63. Codec ID/Info : Picture based subtitle format used on BDs/HD-DVDs

  64. Duration : 2 h 37 min

  65. Bit rate : 27.7 kb/s

  66. Count of elements : 3120

  67. Stream size : 31.2 MiB (0%)

  68. Language : English

  69. Default : Yes

  70. Forced : No


  71. Text #2

  72. ID : 4

  73. Format : PGS

  74. Muxing mode : zlib

  75. Codec ID : S_HDMV/PGS

  76. Codec ID/Info : Picture based subtitle format used on BDs/HD-DVDs

  77. Duration : 2 h 37 min

  78. Bit rate : 21.1 kb/s

  79. Count of elements : 2448

  80. Stream size : 23.8 MiB (0%)

  81. Title : chs

  82. Language : Chinese

  83. Default : Yes

  84. Forced : No


  85. Text #3

  86. ID : 5

  87. Format : PGS

  88. Muxing mode : zlib

  89. Codec ID : S_HDMV/PGS

  90. Codec ID/Info : Picture based subtitle format used on BDs/HD-DVDs

  91. Duration : 2 h 37 min

  92. Bit rate : 21.9 kb/s

  93. Count of elements : 2448

  94. Stream size : 24.8 MiB (0%)

  95. Title : cht

  96. Language : Chinese

  97. Default : Yes

  98. Forced : No


  99. Menu

  100. 00:00:00.000 : :Chapter 01 / :Chapter 01

  101. 00:04:33.482 : :Chapter 02

  102. 00:07:33.119 : :Chapter 03

  103. 00:11:26.019 : :Chapter 04

  104. 00:17:17.954 : :Chapter 05

  105. 00:22:30.349 : :Chapter 06

  106. 00:28:05.100 : :Chapter 07

  107. 00:37:11.855 : :Chapter 08

  108. 00:43:27.396 : :Chapter 09

  109. 00:57:36.662 : :Chapter 10

  110. 01:19:26.971 : :Chapter 11

  111. 01:28:30.597 : :Chapter 12

  112. 01:46:03.691 : :Chapter 13

  113. 01:52:03.175 : :Chapter 14

  114. 02:11:05.274 : :Chapter 15

  115. 02:25:18.251 : :Chapter 16

  116. 02:32:40.735 : :Chapter 17

  117. 02:38:05.643 : :Chapter 18




文件下载


除非特别注明,本文『走出非洲[中文字幕].Out.of.Africa.1985.1080p.BluRay.x265.10bit.DD/5.1.MNHD 9.64GB』来源于互联网机器人自动抓取,非本站原创。 浮游电影网不对本文拥有版权,如有侵犯,请联系邮箱:fuyouu#yandex.com[#换成@]投诉。我们会在15个工作日内删除。 但烦请转载时请标明出处:“本文转载于『浮游电影网』,原文地址:https://www.fuyouu.com/14223.html

评论吧骚年!

发表你的见解   

昵称*

E-mail*(建议输入,以便收到博主回复的提示邮件)

验证码*

您可以使用eMule或eMule Mod(Windows)、aMule(Win、Linux、Mac)等软件下载eD2k链接。。
eMule收藏集(.emulecollection)文件是您选中的所有链接的列表文件。eMule可以直接下载它们。
按住SHIFT键选择可以选中多个选择框。
可用文件名和大小选择器来选择文件。
文件名选择器帮您根据文件名称或后缀来选择文件。不分大小写。
符号使用:
和:空格( )、+
不包含:-
或:|
转义:一对英文引号("");
匹配开头:^
匹配结尾:$
例如:
选中所有名称中包含有“eMule”或“0.49c”字眼,但不包含有“exe”字眼的:emule|0.49c -exe
选中所有名称的开头是“eMule”,结尾是“0.49c”的:^emule 0.49c$
选中所有名称中带有“eMule 0.49c”的(必须是“eMule 0.49c”,中间没有别的字符,不能是“eMule fake 0.49c”),需要转义:"emule 0.49c"
大小选择器帮您根据文件大小选择文件。