当前位置: 首页 >> 欧美电影 >> 健听女孩[中文字幕].Coda.2160p.ATVP.WEB-DL.DDP5.1.Atmos.DV.HEVC 24.73GB >> 正文

健听女孩[中文字幕].Coda.2160p.ATVP.WEB-DL.DDP5.1.Atmos.DV.HEVC 24.73GB

2021年09月06日 22:09:44     电影发布:来源于网络     电影分类:欧美电影     评论(0)    

健听女孩[中文字幕].Coda.2160p.ATVP.WEB DL.DDP5.1.Atmos.DV.HEVC 24.73GB 剧情片 欧美电影  第1张

◎译 名 健听女孩 / 贝利叶一家 美国版 / 乐动心旋律(台) / 心之旋律 / 终曲 / Children of Deaf Adults

◎片 名 CODA

◎年 代 2021

◎产 地 美国 / 法国

◎类 别 剧情

◎语 言 美国手语 / 英语

◎上映日期 2021-01-29(圣丹斯电影节)

◎IMDb链接 https://www.imdb.com/title/tt10366460/

◎豆瓣评分 8.6/10 (9302人评价)

◎豆瓣链接 https://movie.douban.com/subject/35048413/

◎片 长 111分钟

◎导 演 夏安·海德 Sian Heder (id:1219962)

◎编 剧 夏安·海德 Sian Heder (id:1219962)

◎演 员 艾米莉亚·琼斯 Emilia Jones (id:1318340)

约翰·菲奥里 John Fiore (id:1283759)

凯文·查普曼 Kevin Chapman (id:1280483)

艾米·福赛思 Amy Forsyth (id:1356992)

福迪亚·瓦尔什-匹罗 Ferdia Walsh-Peelo (id:1357404)

玛丽·玛特琳 Marlee Matlin (id:1049675)

欧赫尼奥·德尔维斯 Eugenio Derbez (id:1050224)

何塞·冈斯·阿尔维斯 Jose Guns Alves (id:1446090)

欧文·伯克 Owen Burke (id:1387221)

梅利莎·麦克米金 Melissa McMeekin (id:1273144)

埃里卡·麦克德莫特 Erica McDermott (id:1272004)

大卫·纽森 David Newsom (id:1129597)

大卫·布肯德尔 David Bookbinder (id:1231328)

琪拉·皮查多 Kiara Pichardo (id:1416808)

朗尼·法默 Lonnie Farmer (id:1454177)

◎标 签 家庭 / 音乐 / 美国 / 剧情 / 2021 / 美国电影 / 电影 / 圣丹斯

◎简 介

故事聚焦一个聋哑家庭中唯一有听觉的高中女孩鲁比,她每天都要帮助父母和哥哥操持渔业生意,在加入高中合唱团后,鲁比对歌唱的热爱打动了合唱团长,团长决定让鲁比在梦想和家族之间做一个选择。

◎获奖情况 (共3项)

第37届圣丹斯电影节 (2021)

评审团大奖 剧情片

└──夏安·海德 (id:1219962)

观众奖 剧情片

└──夏安·海德 (id:1219962)

导演奖 剧情片

└──夏安·海德 (id:1219962)

  1. ##### MediaInfo ######

  2. General

  3. Unique ID : 181259660175796110831865531481967303730 (0x885D5739B388A9B7C135865C46F01C32)

  4. Complete name : Coda.2160p.ATVP.WEB-DL.DDP5.1.Atmos.DV.HEVC-10002@BBQDDQ.COM.mkv

  5. Format : Matroska

  6. Format version : Version 4

  7. File size : 24.7 GiB

  8. Duration : 1 h 51 min

  9. Overall bit rate : 31.7 Mb/s

  10. Encoded date : UTC 2021-09-05 07:04:35

  11. Writing application : mkvmerge v58.0.0 ('Supper's Ready') 64-bit

  12. Writing library : libebml v1.4.2 + libmatroska v1.6.4


  13. Video

  14. ID : 1

  15. Format : HEVC

  16. Format/Info : High Efficiency Video Coding

  17. Format profile : Main 10@L5@High

  18. Codec ID : V_MPEGH/ISO/HEVC

  19. Duration : 1 h 51 min

  20. Bit rate : 24.0 Mb/s

  21. Width : 3 840 pixels

  22. Height : 2 076 pixels

  23. Display aspect ratio : 1.85:1

  24. Frame rate mode : Constant

  25. Frame rate : 23.976 (24000/1001/53354) FPS

  26. Color space : YUV

  27. Chroma subsampling : 4:2:0

  28. Bit depth : 10 bits

  29. Bits/(Pixel*Frame) : 0.126

  30. Stream size : 18.7 GiB (76%)

  31. Language : English

  32. Default : Yes

  33. Forced : No


  34. Audio #1

  35. ID : 2

  36. Format : E-AC-3 JOC

  37. Format/Info : Enhanced AC-3 with Joint Object Coding

  38. Commercial name : Dolby Digital Plus with Dolby Atmos

  39. Codec ID : A_EAC3

  40. Duration : 1 h 51 min

  41. Bit rate mode : Constant

  42. Bit rate : 768 kb/s

  43. Channel(s) : 6 channels

  44. Channel layout : L R C LFE Ls Rs

  45. Sampling rate : 48.0 kHz

  46. Frame rate : 31.250 FPS (1536 SPF)

  47. Compression mode : Lossy

  48. Stream size : 614 MiB (2%)

  49. Title : English

  50. Language : English

  51. Service kind : Complete Main

  52. Default : Yes

  53. Forced : No

  54. Complexity index : 16

  55. Number of dynamic objects : 15

  56. Bed channel count : 1 channel

  57. Bed channel configuration : LFE


  58. Audio #2

  59. ID : 3

  60. Format : E-AC-3 JOC

  61. Format/Info : Enhanced AC-3 with Joint Object Coding

  62. Commercial name : Dolby Digital Plus with Dolby Atmos

  63. Codec ID : A_EAC3

  64. Duration : 1 h 51 min

  65. Bit rate mode : Constant

  66. Bit rate : 768 kb/s

  67. Channel(s) : 6 channels

  68. Channel layout : L R C LFE Ls Rs

  69. Sampling rate : 48.0 kHz

  70. Frame rate : 31.250 FPS (1536 SPF)

  71. Compression mode : Lossy

  72. Stream size : 614 MiB (2%)

  73. Title : Fran?ais

  74. Language : French

  75. Service kind : Complete Main

  76. Default : No

  77. Forced : No

  78. Complexity index : 16

  79. Number of dynamic objects : 15

  80. Bed channel count : 1 channel

  81. Bed channel configuration : LFE


  82. Audio #3

  83. ID : 4

  84. Format : E-AC-3 JOC

  85. Format/Info : Enhanced AC-3 with Joint Object Coding

  86. Commercial name : Dolby Digital Plus with Dolby Atmos

  87. Codec ID : A_EAC3

  88. Duration : 1 h 51 min

  89. Bit rate mode : Constant

  90. Bit rate : 768 kb/s

  91. Channel(s) : 6 channels

  92. Channel layout : L R C LFE Ls Rs

  93. Sampling rate : 48.0 kHz

  94. Frame rate : 31.250 FPS (1536 SPF)

  95. Compression mode : Lossy

  96. Stream size : 614 MiB (2%)

  97. Title : Fran?ais

  98. Language : French

  99. Service kind : Complete Main

  100. Default : No

  101. Forced : No

  102. Complexity index : 16

  103. Number of dynamic objects : 15

  104. Bed channel count : 1 channel

  105. Bed channel configuration : LFE


  106. Audio #4

  107. ID : 5

  108. Format : E-AC-3 JOC

  109. Format/Info : Enhanced AC-3 with Joint Object Coding

  110. Commercial name : Dolby Digital Plus with Dolby Atmos

  111. Codec ID : A_EAC3

  112. Duration : 1 h 51 min

  113. Bit rate mode : Constant

  114. Bit rate : 768 kb/s

  115. Channel(s) : 6 channels

  116. Channel layout : L R C LFE Ls Rs

  117. Sampling rate : 48.0 kHz

  118. Frame rate : 31.250 FPS (1536 SPF)

  119. Compression mode : Lossy

  120. Stream size : 614 MiB (2%)

  121. Title : Deutsch

  122. Language : German

  123. Service kind : Complete Main

  124. Default : No

  125. Forced : No

  126. Complexity index : 16

  127. Number of dynamic objects : 15

  128. Bed channel count : 1 channel

  129. Bed channel configuration : LFE


  130. Audio #5

  131. ID : 6

  132. Format : E-AC-3 JOC

  133. Format/Info : Enhanced AC-3 with Joint Object Coding

  134. Commercial name : Dolby Digital Plus with Dolby Atmos

  135. Codec ID : A_EAC3

  136. Duration : 1 h 51 min

  137. Bit rate mode : Constant

  138. Bit rate : 768 kb/s

  139. Channel(s) : 6 channels

  140. Channel layout : L R C LFE Ls Rs

  141. Sampling rate : 48.0 kHz

  142. Frame rate : 31.250 FPS (1536 SPF)

  143. Compression mode : Lossy

  144. Stream size : 614 MiB (2%)

  145. Title : Italiano

  146. Language : Italian

  147. Service kind : Complete Main

  148. Default : No

  149. Forced : No

  150. Complexity index : 16

  151. Number of dynamic objects : 15

  152. Bed channel count : 1 channel

  153. Bed channel configuration : LFE


  154. Audio #6

  155. ID : 7

  156. Format : E-AC-3 JOC

  157. Format/Info : Enhanced AC-3 with Joint Object Coding

  158. Commercial name : Dolby Digital Plus with Dolby Atmos

  159. Codec ID : A_EAC3

  160. Duration : 1 h 51 min

  161. Bit rate mode : Constant

  162. Bit rate : 768 kb/s

  163. Channel(s) : 6 channels

  164. Channel layout : L R C LFE Ls Rs

  165. Sampling rate : 48.0 kHz

  166. Frame rate : 31.250 FPS (1536 SPF)

  167. Compression mode : Lossy

  168. Stream size : 614 MiB (2%)

  169. Title : 日本

  170. Language : Japanese

  171. Service kind : Complete Main

  172. Default : No

  173. Forced : No

  174. Complexity index : 16

  175. Number of dynamic objects : 15

  176. Bed channel count : 1 channel

  177. Bed channel configuration : LFE


  178. Audio #7

  179. ID : 8

  180. Format : E-AC-3 JOC

  181. Format/Info : Enhanced AC-3 with Joint Object Coding

  182. Commercial name : Dolby Digital Plus with Dolby Atmos

  183. Codec ID : A_EAC3

  184. Duration : 1 h 51 min

  185. Bit rate mode : Constant

  186. Bit rate : 768 kb/s

  187. Channel(s) : 6 channels

  188. Channel layout : L R C LFE Ls Rs

  189. Sampling rate : 48.0 kHz

  190. Frame rate : 31.250 FPS (1536 SPF)

  191. Compression mode : Lossy

  192. Stream size : 614 MiB (2%)

  193. Title : Português

  194. Language : Portuguese

  195. Service kind : Complete Main

  196. Default : No

  197. Forced : No

  198. Complexity index : 16

  199. Number of dynamic objects : 15

  200. Bed channel count : 1 channel

  201. Bed channel configuration : LFE


  202. Audio #8

  203. ID : 9

  204. Format : E-AC-3 JOC

  205. Format/Info : Enhanced AC-3 with Joint Object Coding

  206. Commercial name : Dolby Digital Plus with Dolby Atmos

  207. Codec ID : A_EAC3

  208. Duration : 1 h 51 min

  209. Bit rate mode : Constant

  210. Bit rate : 768 kb/s

  211. Channel(s) : 6 channels

  212. Channel layout : L R C LFE Ls Rs

  213. Sampling rate : 48.0 kHz

  214. Frame rate : 31.250 FPS (1536 SPF)

  215. Compression mode : Lossy

  216. Stream size : 614 MiB (2%)

  217. Title : русский язык

  218. Language : Russian

  219. Service kind : Complete Main

  220. Default : No

  221. Forced : No

  222. Complexity index : 16

  223. Number of dynamic objects : 15

  224. Bed channel count : 1 channel

  225. Bed channel configuration : LFE


  226. Audio #9

  227. ID : 10

  228. Format : E-AC-3 JOC

  229. Format/Info : Enhanced AC-3 with Joint Object Coding

  230. Commercial name : Dolby Digital Plus with Dolby Atmos

  231. Codec ID : A_EAC3

  232. Duration : 1 h 51 min

  233. Bit rate mode : Constant

  234. Bit rate : 768 kb/s

  235. Channel(s) : 6 channels

  236. Channel layout : L R C LFE Ls Rs

  237. Sampling rate : 48.0 kHz

  238. Frame rate : 31.250 FPS (1536 SPF)

  239. Compression mode : Lossy

  240. Stream size : 614 MiB (2%)

  241. Title : Espa?ol?(Latinoamérica)

  242. Language : Spanish

  243. Service kind : Complete Main

  244. Default : No

  245. Forced : No

  246. Complexity index : 16

  247. Number of dynamic objects : 15

  248. Bed channel count : 1 channel

  249. Bed channel configuration : LFE


  250. Audio #10

  251. ID : 11

  252. Format : E-AC-3 JOC

  253. Format/Info : Enhanced AC-3 with Joint Object Coding

  254. Commercial name : Dolby Digital Plus with Dolby Atmos

  255. Codec ID : A_EAC3

  256. Duration : 1 h 51 min

  257. Bit rate mode : Constant

  258. Bit rate : 768 kb/s

  259. Channel(s) : 6 channels

  260. Channel layout : L R C LFE Ls Rs

  261. Sampling rate : 48.0 kHz

  262. Frame rate : 31.250 FPS (1536 SPF)

  263. Compression mode : Lossy

  264. Stream size : 614 MiB (2%)

  265. Title : Espa?ol?(Espa?a)

  266. Language : Spanish

  267. Service kind : Complete Main

  268. Default : No

  269. Forced : No

  270. Complexity index : 16

  271. Number of dynamic objects : 15

  272. Bed channel count : 1 channel

  273. Bed channel configuration : LFE


  274. Text #1

  275. ID : 12

  276. Format : UTF-8

  277. Codec ID : S_TEXT/UTF8

  278. Codec ID/Info : UTF-8 Plain Text

  279. Duration : 1 h 43 min

  280. Bit rate : 47 b/s

  281. Count of elements : 1407

  282. Stream size : 36.1 KiB (0%)

  283. Title : English

  284. Language : English

  285. Default : Yes

  286. Forced : No


  287. Text #2

  288. ID : 13

  289. Format : UTF-8

  290. Codec ID : S_TEXT/UTF8

  291. Codec ID/Info : UTF-8 Plain Text

  292. Duration : 1 h 50 min

  293. Bit rate : 66 b/s

  294. Count of elements : 1357

  295. Stream size : 53.7 KiB (0%)

  296. Title : ????

  297. Language : Arabic

  298. Default : No

  299. Forced : No


  300. Text #3

  301. ID : 14

  302. Format : UTF-8

  303. Codec ID : S_TEXT/UTF8

  304. Codec ID/Info : UTF-8 Plain Text

  305. Duration : 1 h 50 min

  306. Bit rate : 65 b/s

  307. Count of elements : 1304

  308. Stream size : 52.8 KiB (0%)

  309. Title : български

  310. Language : Bulgarian

  311. Default : No

  312. Forced : No


  313. Text #4

  314. ID : 15

  315. Format : UTF-8

  316. Codec ID : S_TEXT/UTF8

  317. Codec ID/Info : UTF-8 Plain Text

  318. Duration : 1 h 50 min

  319. Bit rate : 40 b/s

  320. Count of elements : 1267

  321. Stream size : 33.3 KiB (0%)

  322. Title : ?esky

  323. Language : Czech

  324. Default : No

  325. Forced : No


  326. Text #5

  327. ID : 16

  328. Format : UTF-8

  329. Codec ID : S_TEXT/UTF8

  330. Codec ID/Info : UTF-8 Plain Text

  331. Duration : 1 h 50 min

  332. Bit rate : 43 b/s

  333. Count of elements : 1230

  334. Stream size : 35.5 KiB (0%)

  335. Title : dansk

  336. Language : Danish

  337. Default : No

  338. Forced : No


  339. Text #6

  340. ID : 17

  341. Format : UTF-8

  342. Codec ID : S_TEXT/UTF8

  343. Codec ID/Info : UTF-8 Plain Text

  344. Duration : 1 h 50 min

  345. Bit rate : 40 b/s

  346. Count of elements : 1119

  347. Stream size : 33.1 KiB (0%)

  348. Title : Nederlands

  349. Language : Dutch

  350. Default : No

  351. Forced : No


  352. Text #7

  353. ID : 18

  354. Format : UTF-8

  355. Codec ID : S_TEXT/UTF8

  356. Codec ID/Info : UTF-8 Plain Text

  357. Duration : 1 h 50 min

  358. Bit rate : 39 b/s

  359. Count of elements : 1231

  360. Stream size : 32.3 KiB (0%)

  361. Title : eesti keel

  362. Language : Estonian

  363. Default : No

  364. Forced : No


  365. Text #8

  366. ID : 19

  367. Format : UTF-8

  368. Codec ID : S_TEXT/UTF8

  369. Codec ID/Info : UTF-8 Plain Text

  370. Duration : 1 h 50 min

  371. Bit rate : 43 b/s

  372. Count of elements : 1362

  373. Stream size : 35.5 KiB (0%)

  374. Title : Vlaams

  375. Language : Finnish

  376. Default : No

  377. Forced : No


  378. Text #9

  379. ID : 20

  380. Format : UTF-8

  381. Codec ID : S_TEXT/UTF8

  382. Codec ID/Info : UTF-8 Plain Text

  383. Duration : 1 h 49 min

  384. Bit rate : 40 b/s

  385. Count of elements : 1187

  386. Stream size : 32.4 KiB (0%)

  387. Title : Fran?ais

  388. Language : French

  389. Default : No

  390. Forced : No


  391. Text #10

  392. ID : 21

  393. Format : UTF-8

  394. Codec ID : S_TEXT/UTF8

  395. Codec ID/Info : UTF-8 Plain Text

  396. Duration : 1 h 50 min

  397. Bit rate : 39 b/s

  398. Count of elements : 1188

  399. Stream size : 32.4 KiB (0%)

  400. Title : Fran?ais

  401. Language : French

  402. Default : No

  403. Forced : No


  404. Text #11

  405. ID : 22

  406. Format : UTF-8

  407. Codec ID : S_TEXT/UTF8

  408. Codec ID/Info : UTF-8 Plain Text

  409. Duration : 1 h 50 min

  410. Bit rate : 39 b/s

  411. Count of elements : 1188

  412. Stream size : 32.4 KiB (0%)

  413. Title : Fran?ais

  414. Language : French

  415. Default : No

  416. Forced : No


  417. Text #12

  418. ID : 23

  419. Format : UTF-8

  420. Codec ID : S_TEXT/UTF8

  421. Codec ID/Info : UTF-8 Plain Text

  422. Duration : 1 h 50 min

  423. Bit rate : 46 b/s

  424. Count of elements : 1151

  425. Stream size : 37.5 KiB (0%)

  426. Title : Deutsch

  427. Language : German

  428. Default : No

  429. Forced : No


  430. Text #13

  431. ID : 24

  432. Format : UTF-8

  433. Codec ID : S_TEXT/UTF8

  434. Codec ID/Info : UTF-8 Plain Text

  435. Duration : 1 h 50 min

  436. Bit rate : 73 b/s

  437. Count of elements : 1342

  438. Stream size : 59.5 KiB (0%)

  439. Title : ελληνικ?

  440. Language : Greek

  441. Default : No

  442. Forced : No


  443. Text #14

  444. ID : 25

  445. Format : UTF-8

  446. Codec ID : S_TEXT/UTF8

  447. Codec ID/Info : UTF-8 Plain Text

  448. Duration : 1 h 50 min

  449. Bit rate : 57 b/s

  450. Count of elements : 1362

  451. Stream size : 46.7 KiB (0%)

  452. Title : ????

  453. Language : Hebrew

  454. Default : No

  455. Forced : No


  456. Text #15

  457. ID : 26

  458. Format : UTF-8

  459. Codec ID : S_TEXT/UTF8

  460. Codec ID/Info : UTF-8 Plain Text

  461. Duration : 1 h 50 min

  462. Bit rate : 113 b/s

  463. Count of elements : 1365

  464. Stream size : 92.1 KiB (0%)

  465. Title : ??????

  466. Language : Hindi

  467. Default : No

  468. Forced : No


  469. Text #16

  470. ID : 27

  471. Format : UTF-8

  472. Codec ID : S_TEXT/UTF8

  473. Codec ID/Info : UTF-8 Plain Text

  474. Duration : 1 h 50 min

  475. Bit rate : 42 b/s

  476. Count of elements : 1362

  477. Stream size : 34.1 KiB (0%)

  478. Title : Magyar

  479. Language : Hungarian

  480. Default : No

  481. Forced : No


  482. Text #17

  483. ID : 28

  484. Format : UTF-8

  485. Codec ID : S_TEXT/UTF8

  486. Codec ID/Info : UTF-8 Plain Text

  487. Duration : 1 h 50 min

  488. Bit rate : 42 b/s

  489. Count of elements : 1363

  490. Stream size : 34.5 KiB (0%)

  491. Title : Indonesia

  492. Language : Indonesian

  493. Default : No

  494. Forced : No


  495. Text #18

  496. ID : 29

  497. Format : UTF-8

  498. Codec ID : S_TEXT/UTF8

  499. Codec ID/Info : UTF-8 Plain Text

  500. Duration : 1 h 50 min

  501. Bit rate : 45 b/s

  502. Count of elements : 1363

  503. Stream size : 36.5 KiB (0%)

  504. Title : Italiano

  505. Language : Italian

  506. Default : No

  507. Forced : No


  508. Text #19

  509. ID : 30

  510. Format : UTF-8

  511. Codec ID : S_TEXT/UTF8

  512. Codec ID/Info : UTF-8 Plain Text

  513. Duration : 1 h 50 min

  514. Bit rate : 42 b/s

  515. Count of elements : 1204

  516. Stream size : 34.8 KiB (0%)

  517. Title : 日本語

  518. Language : Japanese

  519. Default : No

  520. Forced : No


  521. Text #20

  522. ID : 31

  523. Format : UTF-8

  524. Codec ID : S_TEXT/UTF8

  525. Codec ID/Info : UTF-8 Plain Text

  526. Duration : 1 h 50 min

  527. Bit rate : 44 b/s

  528. Count of elements : 1365

  529. Stream size : 36.5 KiB (0%)

  530. Title : ???

  531. Language : Korean

  532. Default : No

  533. Forced : No


  534. Text #21

  535. ID : 32

  536. Format : UTF-8

  537. Codec ID : S_TEXT/UTF8

  538. Codec ID/Info : UTF-8 Plain Text

  539. Duration : 1 h 50 min

  540. Bit rate : 43 b/s

  541. Count of elements : 1364

  542. Stream size : 35.4 KiB (0%)

  543. Title : lietuvi? kalba

  544. Language : Lithuanian

  545. Default : No

  546. Forced : No


  547. Text #22

  548. ID : 33

  549. Format : UTF-8

  550. Codec ID : S_TEXT/UTF8

  551. Codec ID/Info : UTF-8 Plain Text

  552. Duration : 1 h 50 min

  553. Bit rate : 42 b/s

  554. Count of elements : 1363

  555. Stream size : 34.3 KiB (0%)

  556. Title : latvie?u valoda

  557. Language : Latvian

  558. Default : No

  559. Forced : No


  560. Text #23

  561. ID : 34

  562. Format : UTF-8

  563. Codec ID : S_TEXT/UTF8

  564. Codec ID/Info : UTF-8 Plain Text

  565. Duration : 1 h 50 min

  566. Bit rate : 43 b/s

  567. Count of elements : 1363

  568. Stream size : 35.1 KiB (0%)

  569. Title : ???? ?????

  570. Language : Malay

  571. Default : No

  572. Forced : No


  573. Text #24

  574. ID : 35

  575. Format : UTF-8

  576. Codec ID : S_TEXT/UTF8

  577. Codec ID/Info : UTF-8 Plain Text

  578. Duration : 1 h 50 min

  579. Bit rate : 41 b/s

  580. Count of elements : 1364

  581. Stream size : 33.8 KiB (0%)

  582. Title : 中文(简体)

  583. Language : Chinese

  584. Default : No

  585. Forced : No


  586. Text #25

  587. ID : 36

  588. Format : UTF-8

  589. Codec ID : S_TEXT/UTF8

  590. Codec ID/Info : UTF-8 Plain Text

  591. Duration : 1 h 50 min

  592. Bit rate : 42 b/s

  593. Count of elements : 1365

  594. Stream size : 34.8 KiB (0%)

  595. Title : 中文(繁體)

  596. Language : Chinese

  597. Default : No

  598. Forced : No


  599. Text #26

  600. ID : 37

  601. Format : UTF-8

  602. Codec ID : S_TEXT/UTF8

  603. Codec ID/Info : UTF-8 Plain Text

  604. Duration : 1 h 50 min

  605. Bit rate : 41 b/s

  606. Count of elements : 1365

  607. Stream size : 33.8 KiB (0%)

  608. Title : 中文(粤语)

  609. Language : Chinese

  610. Default : No

  611. Forced : No


  612. Text #27

  613. ID : 38

  614. Format : UTF-8

  615. Codec ID : S_TEXT/UTF8

  616. Codec ID/Info : UTF-8 Plain Text

  617. Duration : 1 h 50 min

  618. Bit rate : 43 b/s

  619. Count of elements : 1236

  620. Stream size : 35.1 KiB (0%)

  621. Title : norsk

  622. Language : Norwegian

  623. Default : No

  624. Forced : No


  625. Text #28

  626. ID : 39

  627. Format : UTF-8

  628. Codec ID : S_TEXT/UTF8

  629. Codec ID/Info : UTF-8 Plain Text

  630. Duration : 1 h 50 min

  631. Bit rate : 40 b/s

  632. Count of elements : 1300

  633. Stream size : 32.4 KiB (0%)

  634. Title : J?zyk polski

  635. Language : Polish

  636. Default : No

  637. Forced : No


  638. Text #29

  639. ID : 40

  640. Format : UTF-8

  641. Codec ID : S_TEXT/UTF8

  642. Codec ID/Info : UTF-8 Plain Text

  643. Duration : 1 h 50 min

  644. Bit rate : 43 b/s

  645. Count of elements : 1340

  646. Stream size : 35.3 KiB (0%)

  647. Title : Português

  648. Language : Portuguese

  649. Default : No

  650. Forced : No


  651. Text #30

  652. ID : 41

  653. Format : UTF-8

  654. Codec ID : S_TEXT/UTF8

  655. Codec ID/Info : UTF-8 Plain Text

  656. Duration : 1 h 50 min

  657. Bit rate : 38 b/s

  658. Count of elements : 1364

  659. Stream size : 31.5 KiB (0%)

  660. Title : Português

  661. Language : Portuguese

  662. Default : No

  663. Forced : No


  664. Text #31

  665. ID : 42

  666. Format : UTF-8

  667. Codec ID : S_TEXT/UTF8

  668. Codec ID/Info : UTF-8 Plain Text

  669. Duration : 1 h 50 min

  670. Bit rate : 67 b/s

  671. Count of elements : 1246

  672. Stream size : 54.9 KiB (0%)

  673. Title : русский язык

  674. Language : Russian

  675. Default : No

  676. Forced : No


  677. Text #32

  678. ID : 43

  679. Format : UTF-8

  680. Codec ID : S_TEXT/UTF8

  681. Codec ID/Info : UTF-8 Plain Text

  682. Duration : 1 h 50 min

  683. Bit rate : 42 b/s

  684. Count of elements : 1362

  685. Stream size : 34.0 KiB (0%)

  686. Title : sloven?ina

  687. Language : Slovak

  688. Default : No

  689. Forced : No


  690. Text #33

  691. ID : 44

  692. Format : UTF-8

  693. Codec ID : S_TEXT/UTF8

  694. Codec ID/Info : UTF-8 Plain Text

  695. Duration : 1 h 50 min

  696. Bit rate : 35 b/s

  697. Count of elements : 1176

  698. Stream size : 29.0 KiB (0%)

  699. Title : sloven??ina

  700. Language : Slovenian

  701. Default : No

  702. Forced : No


  703. Text #34

  704. ID : 45

  705. Format : UTF-8

  706. Codec ID : S_TEXT/UTF8

  707. Codec ID/Info : UTF-8 Plain Text

  708. Duration : 1 h 50 min

  709. Bit rate : 43 b/s

  710. Count of elements : 1368

  711. Stream size : 35.4 KiB (0%)

  712. Title : Espa?ol?(Latinoamérica)

  713. Language : Spanish

  714. Default : No

  715. Forced : No


  716. Text #35

  717. ID : 46

  718. Format : UTF-8

  719. Codec ID : S_TEXT/UTF8

  720. Codec ID/Info : UTF-8 Plain Text

  721. Duration : 1 h 50 min

  722. Bit rate : 44 b/s

  723. Count of elements : 1354

  724. Stream size : 36.1 KiB (0%)

  725. Title : Espa?ol?(Espa?a)

  726. Language : Spanish

  727. Default : No

  728. Forced : No


  729. Text #36

  730. ID : 47

  731. Format : UTF-8

  732. Codec ID : S_TEXT/UTF8

  733. Codec ID/Info : UTF-8 Plain Text

  734. Duration : 1 h 50 min

  735. Bit rate : 40 b/s

  736. Count of elements : 1314

  737. Stream size : 32.7 KiB (0%)

  738. Title : svenska

  739. Language : Swedish

  740. Default : No

  741. Forced : No


  742. Text #37

  743. ID : 48

  744. Format : UTF-8

  745. Codec ID : S_TEXT/UTF8

  746. Codec ID/Info : UTF-8 Plain Text

  747. Duration : 1 h 50 min

  748. Bit rate : 145 b/s

  749. Count of elements : 1362

  750. Stream size : 118 KiB (0%)

  751. Title : ?????

  752. Language : Tamil

  753. Default : No

  754. Forced : No


  755. Text #38

  756. ID : 49

  757. Format : UTF-8

  758. Codec ID : S_TEXT/UTF8

  759. Codec ID/Info : UTF-8 Plain Text

  760. Duration : 1 h 50 min

  761. Bit rate : 123 b/s

  762. Count of elements : 1364

  763. Stream size : 99.7 KiB (0%)

  764. Title : ??????

  765. Language : Telugu

  766. Default : No

  767. Forced : No


  768. Text #39

  769. ID : 50

  770. Format : UTF-8

  771. Codec ID : S_TEXT/UTF8

  772. Codec ID/Info : UTF-8 Plain Text

  773. Duration : 1 h 50 min

  774. Bit rate : 103 b/s

  775. Count of elements : 1364

  776. Stream size : 83.7 KiB (0%)

  777. Title : ???

  778. Language : Thai

  779. Default : No

  780. Forced : No


  781. Text #40

  782. ID : 51

  783. Format : UTF-8

  784. Codec ID : S_TEXT/UTF8

  785. Codec ID/Info : UTF-8 Plain Text

  786. Duration : 1 h 50 min

  787. Bit rate : 44 b/s

  788. Count of elements : 1362

  789. Stream size : 36.0 KiB (0%)

  790. Title : Türk

  791. Language : Turkish

  792. Default : No

  793. Forced : No


  794. Text #41

  795. ID : 52

  796. Format : UTF-8

  797. Codec ID : S_TEXT/UTF8

  798. Codec ID/Info : UTF-8 Plain Text

  799. Duration : 1 h 50 min

  800. Bit rate : 71 b/s

  801. Count of elements : 1365

  802. Stream size : 58.1 KiB (0%)

  803. Title : Укра?нська

  804. Language : Ukrainian

  805. Default : No

  806. Forced : No


  807. Text #42

  808. ID : 53

  809. Format : UTF-8

  810. Codec ID : S_TEXT/UTF8

  811. Codec ID/Info : UTF-8 Plain Text

  812. Duration : 1 h 50 min

  813. Bit rate : 54 b/s

  814. Count of elements : 1364

  815. Stream size : 44.0 KiB (0%)

  816. Title : Ti?ng Vi?t

  817. Language : Vietnamese

  818. Default : No

  819. Forced : No


文件下载


除非特别注明,本文『健听女孩[中文字幕].Coda.2160p.ATVP.WEB-DL.DDP5.1.Atmos.DV.HEVC 24.73GB』来源于互联网机器人自动抓取,非本站原创。 浮游电影网不对本文拥有版权,如有侵犯,请联系邮箱:fuyouu#yandex.com[#换成@]投诉。我们会在15个工作日内删除。 但烦请转载时请标明出处:“本文转载于『浮游电影网』,原文地址:https://5.189.174.242/14222.html

评论吧骚年!

发表你的见解   

昵称*

E-mail*(建议输入,以便收到博主回复的提示邮件)

验证码*

您可以使用eMule或eMule Mod(Windows)、aMule(Win、Linux、Mac)等软件下载eD2k链接。。
eMule收藏集(.emulecollection)文件是您选中的所有链接的列表文件。eMule可以直接下载它们。
按住SHIFT键选择可以选中多个选择框。
可用文件名和大小选择器来选择文件。
文件名选择器帮您根据文件名称或后缀来选择文件。不分大小写。
符号使用:
和:空格( )、+
不包含:-
或:|
转义:一对英文引号("");
匹配开头:^
匹配结尾:$
例如:
选中所有名称中包含有“eMule”或“0.49c”字眼,但不包含有“exe”字眼的:emule|0.49c -exe
选中所有名称的开头是“eMule”,结尾是“0.49c”的:^emule 0.49c$
选中所有名称中带有“eMule 0.49c”的(必须是“eMule 0.49c”,中间没有别的字符,不能是“eMule fake 0.49c”),需要转义:"emule 0.49c"
大小选择器帮您根据文件大小选择文件。