当前位置: 首页 >> 海外电影 >> 交换生的秘密日记[中文字幕].The.Secret.Diary.of.an.Exchange.Student.2021.1080p.NF.WEB-DL.DDP5.1.x264 5.54GB >> 正文

交换生的秘密日记[中文字幕].The.Secret.Diary.of.an.Exchange.Student.2021.1080p.NF.WEB-DL.DDP5.1.x264 5.54GB

2021年09月06日 22:08:24     电影发布:来源于网络     电影分类:海外电影     评论(0)    

交换生的秘密日记[中文字幕].The.Secret.Diary.of.an.Exchange.Student.2021.1080p.NF.WEB DL.DDP5.1.x264 5.54GB 爱情片 喜剧片 海外电影  第1张

◎译 名 交换生的秘密日记 / Diaries of an Exchange Student

◎片 名 Diários de Intercambio

◎年 代 2021

◎产 地 巴西

◎类 别 喜剧 / 爱情

◎语 言 葡萄牙语

◎上映日期 2021-08-18(巴西)

◎IMDb链接 https://www.imdb.com/title/tt11594766/

◎豆瓣链接 https://movie.douban.com/subject/35192387/

◎片 长 96分钟

◎标 签 巴西 / 2021 / 喜剧 / 爱情 / 青春 / 电影 / 巴西电影 / 动作

◎简 介

Barbara (Larissa Manoela) and Talia (Thati Lopes) decide to exchange in the US. They have no idea of the obstacles and cultural shock. Barbara who always dreamed of visiting NY discovers they'll be living in the Town of Woodstock, NY. Two hours north of New York City. Accustomed to the comforts of her mother's home. Barbara now has to get accustomed to doing household chores an...

  1. ##### MediaInfo ######

  2. General

  3. Unique ID : 21008277736868070896355554716794401882 (0xFCE0C0FE1DAAA32C4F7FFEE727EB45A)

  4. Complete name : The.Secret.Diary.of.an.Exchange.Student.2021.1080p.NF.WEB-DL.DDP5.1.x264-10002@BBQDDQ.COM.mkv

  5. Format : Matroska

  6. Format version : Version 4

  7. File size : 5.54 GiB

  8. Duration : 1 h 36 min

  9. Overall bit rate mode : Variable

  10. Overall bit rate : 8 214 kb/s

  11. Encoded date : UTC 2021-09-05 08:26:24

  12. Writing application : mkvmerge v44.0.0 ('Domino') 64-bit

  13. Writing library : libebml v1.3.10 + libmatroska v1.5.2


  14. Video

  15. ID : 1

  16. Format : AVC

  17. Format/Info : Advanced Video Codec

  18. Format profile : Main@L4

  19. Format settings : CABAC / 3 Ref Frames

  20. Format settings, CABAC : Yes

  21. Format settings, Reference frames : 3 frames

  22. Codec ID : V_MPEG4/ISO/AVC

  23. Duration : 1 h 36 min

  24. Bit rate mode : Variable

  25. Bit rate : 3 085 kb/s

  26. Nominal bit rate : 2 110 kb/s

  27. Maximum bit rate : 6 330 kb/s

  28. Width : 1 920 pixels

  29. Height : 1 080 pixels

  30. Display aspect ratio : 16:9

  31. Frame rate mode : Constant

  32. Frame rate : 23.976 (24000/1001/53354) FPS

  33. Color space : YUV

  34. Chroma subsampling : 4:2:0

  35. Bit depth : 8 bits

  36. Scan type : Progressive

  37. Bits/(Pixel*Frame) : 0.062

  38. Stream size : 2.08 GiB (38%)

  39. Writing library : x264 core 148 r2722 1b0121b

  40. Encoding settings : cabac=1 / ref=3 / deblock=1:0:0 / analyse=0x1:0x111 / me=umh / subme=10 / psy=1 / psy_rd=1.00:0.00 / mixed_ref=1 / me_range=24 / chroma_me=1 / trellis=2 / 8x8dct=0 / cqm=0 / deadzone=21,11 / fast_pskip=1 / chroma_qp_offset=-2 / threads=8 / lookahead_threads=1 / sliced_threads=0 / nr=0 / decimate=1 / interlaced=0 / NTMzNTQ= / bluray_compat=0 / stitchable=1 / constrained_intra=0 / bframes=2 / b_pyramid=0 / b_adapt=2 / b_bias=0 / direct=3 / weightb=1 / open_gop=0 / weightp=2 / keyint=250 / keyint_min=23 / scenecut=0 / intra_refresh=0 / rc_lookahead=48 / rc=2pass / mbtree=1 / bitrate=2110 / ratetol=1.0 / qcomp=0.50 / qpmin=6 / qpmax=51 / qpstep=4 / cplxblur=20.0 / qblur=0.5 / vbv_maxrate=6330 / vbv_bufsize=8440 / nal_hrd=vbr / filler=0 / NTMzNTQ=LmsMAP37EqsCpk / ip_ratio=1.40 / aq=1:1.00

  41. Default : Yes

  42. Forced : No


  43. Audio #1

  44. ID : 2

  45. Format : E-AC-3

  46. Format/Info : Enhanced AC-3

  47. Commercial name : Dolby Digital Plus

  48. Codec ID : A_EAC3

  49. Duration : 1 h 36 min

  50. Bit rate mode : Constant

  51. Bit rate : 640 kb/s

  52. Channel(s) : 6 channels

  53. Channel layout : L R C LFE Ls Rs

  54. Sampling rate : 48.0 kHz

  55. Frame rate : 31.250 FPS (1536 SPF)

  56. Compression mode : Lossy

  57. Stream size : 442 MiB (8%)

  58. Title : Brazilian Portuguese

  59. Language : Portuguese

  60. Service kind : Complete Main

  61. Default : Yes

  62. Forced : No


  63. Audio #2

  64. ID : 3

  65. Format : E-AC-3

  66. Format/Info : Enhanced AC-3

  67. Commercial name : Dolby Digital Plus

  68. Codec ID : A_EAC3

  69. Duration : 1 h 36 min

  70. Bit rate mode : Constant

  71. Bit rate : 640 kb/s

  72. Channel(s) : 6 channels

  73. Channel layout : L R C LFE Ls Rs

  74. Sampling rate : 48.0 kHz

  75. Frame rate : 31.250 FPS (1536 SPF)

  76. Compression mode : Lossy

  77. Stream size : 442 MiB (8%)

  78. Title : French

  79. Language : French

  80. Service kind : Complete Main

  81. Default : No

  82. Forced : No


  83. Audio #3

  84. ID : 4

  85. Format : E-AC-3

  86. Format/Info : Enhanced AC-3

  87. Commercial name : Dolby Digital Plus

  88. Codec ID : A_EAC3

  89. Duration : 1 h 36 min

  90. Bit rate mode : Constant

  91. Bit rate : 640 kb/s

  92. Channel(s) : 6 channels

  93. Channel layout : L R C LFE Ls Rs

  94. Sampling rate : 48.0 kHz

  95. Frame rate : 31.250 FPS (1536 SPF)

  96. Compression mode : Lossy

  97. Stream size : 442 MiB (8%)

  98. Title : German

  99. Language : German

  100. Service kind : Complete Main

  101. Default : No

  102. Forced : No


  103. Audio #4

  104. ID : 5

  105. Format : E-AC-3

  106. Format/Info : Enhanced AC-3

  107. Commercial name : Dolby Digital Plus

  108. Codec ID : A_EAC3

  109. Duration : 1 h 36 min

  110. Bit rate mode : Constant

  111. Bit rate : 640 kb/s

  112. Channel(s) : 6 channels

  113. Channel layout : L R C LFE Ls Rs

  114. Sampling rate : 48.0 kHz

  115. Frame rate : 31.250 FPS (1536 SPF)

  116. Compression mode : Lossy

  117. Stream size : 442 MiB (8%)

  118. Title : Italian

  119. Language : Italian

  120. Service kind : Complete Main

  121. Default : No

  122. Forced : No


  123. Audio #5

  124. ID : 6

  125. Format : E-AC-3

  126. Format/Info : Enhanced AC-3

  127. Commercial name : Dolby Digital Plus

  128. Codec ID : A_EAC3

  129. Duration : 1 h 36 min

  130. Bit rate mode : Constant

  131. Bit rate : 640 kb/s

  132. Channel(s) : 6 channels

  133. Channel layout : L R C LFE Ls Rs

  134. Sampling rate : 48.0 kHz

  135. Frame rate : 31.250 FPS (1536 SPF)

  136. Compression mode : Lossy

  137. Stream size : 442 MiB (8%)

  138. Title : Polish

  139. Language : Polish

  140. Service kind : Complete Main

  141. Default : No

  142. Forced : No


  143. Audio #6

  144. ID : 7

  145. Format : E-AC-3

  146. Format/Info : Enhanced AC-3

  147. Commercial name : Dolby Digital Plus

  148. Codec ID : A_EAC3

  149. Duration : 1 h 36 min

  150. Bit rate mode : Constant

  151. Bit rate : 640 kb/s

  152. Channel(s) : 6 channels

  153. Channel layout : L R C LFE Ls Rs

  154. Sampling rate : 48.0 kHz

  155. Frame rate : 31.250 FPS (1536 SPF)

  156. Compression mode : Lossy

  157. Stream size : 442 MiB (8%)

  158. Title : Spanish

  159. Language : Spanish

  160. Service kind : Complete Main

  161. Default : No

  162. Forced : No


  163. Audio #7

  164. ID : 8

  165. Format : E-AC-3

  166. Format/Info : Enhanced AC-3

  167. Commercial name : Dolby Digital Plus

  168. Codec ID : A_EAC3

  169. Duration : 1 h 36 min

  170. Bit rate mode : Constant

  171. Bit rate : 640 kb/s

  172. Channel(s) : 6 channels

  173. Channel layout : L R C LFE Ls Rs

  174. Sampling rate : 48.0 kHz

  175. Frame rate : 31.250 FPS (1536 SPF)

  176. Compression mode : Lossy

  177. Stream size : 442 MiB (8%)

  178. Title : European Spanish

  179. Language : Spanish

  180. Service kind : Complete Main

  181. Default : No

  182. Forced : No


  183. Audio #8

  184. ID : 9

  185. Format : E-AC-3

  186. Format/Info : Enhanced AC-3

  187. Commercial name : Dolby Digital Plus

  188. Codec ID : A_EAC3

  189. Duration : 1 h 36 min

  190. Bit rate mode : Constant

  191. Bit rate : 640 kb/s

  192. Channel(s) : 6 channels

  193. Channel layout : L R C LFE Ls Rs

  194. Sampling rate : 48.0 kHz

  195. Frame rate : 31.250 FPS (1536 SPF)

  196. Compression mode : Lossy

  197. Stream size : 442 MiB (8%)

  198. Title : Turkish

  199. Language : Turkish

  200. Service kind : Complete Main

  201. Default : No

  202. Forced : No


  203. Text #1

  204. ID : 10

  205. Format : UTF-8

  206. Codec ID : S_TEXT/UTF8

  207. Codec ID/Info : UTF-8 Plain Text

  208. Duration : 1 h 35 min

  209. Bit rate : 62 b/s

  210. Count of elements : 1507

  211. Stream size : 44.0 KiB (0%)

  212. Title : English

  213. Language : English

  214. Default : Yes

  215. Forced : No


  216. Text #2

  217. ID : 11

  218. Format : UTF-8

  219. Codec ID : S_TEXT/UTF8

  220. Codec ID/Info : UTF-8 Plain Text

  221. Duration : 1 h 35 min

  222. Bit rate : 109 b/s

  223. Count of elements : 1522

  224. Stream size : 76.6 KiB (0%)

  225. Title : Arabic

  226. Language : Arabic

  227. Default : No

  228. Forced : No


  229. Text #3

  230. ID : 12

  231. Format : UTF-8

  232. Codec ID : S_TEXT/UTF8

  233. Codec ID/Info : UTF-8 Plain Text

  234. Duration : 1 h 35 min

  235. Bit rate : 64 b/s

  236. Count of elements : 1519

  237. Stream size : 45.2 KiB (0%)

  238. Title : Chinese Simplified

  239. Language : Chinese

  240. Default : No

  241. Forced : No


  242. Text #4

  243. ID : 13

  244. Format : UTF-8

  245. Codec ID : S_TEXT/UTF8

  246. Codec ID/Info : UTF-8 Plain Text

  247. Duration : 1 h 35 min

  248. Bit rate : 63 b/s

  249. Count of elements : 1489

  250. Stream size : 44.7 KiB (0%)

  251. Title : Chinese Traditional

  252. Language : Chinese

  253. Default : No

  254. Forced : No


  255. Text #5

  256. ID : 14

  257. Format : UTF-8

  258. Codec ID : S_TEXT/UTF8

  259. Codec ID/Info : UTF-8 Plain Text

  260. Duration : 1 h 35 min

  261. Bit rate : 57 b/s

  262. Count of elements : 1504

  263. Stream size : 40.6 KiB (0%)

  264. Title : Croatian

  265. Language : Croatian

  266. Default : No

  267. Forced : No


  268. Text #6

  269. ID : 15

  270. Format : UTF-8

  271. Codec ID : S_TEXT/UTF8

  272. Codec ID/Info : UTF-8 Plain Text

  273. Duration : 1 h 35 min

  274. Bit rate : 58 b/s

  275. Count of elements : 1443

  276. Stream size : 41.3 KiB (0%)

  277. Title : Czech

  278. Language : Czech

  279. Default : No

  280. Forced : No


  281. Text #7

  282. ID : 16

  283. Format : UTF-8

  284. Codec ID : S_TEXT/UTF8

  285. Codec ID/Info : UTF-8 Plain Text

  286. Duration : 1 h 35 min

  287. Bit rate : 56 b/s

  288. Count of elements : 1418

  289. Stream size : 39.9 KiB (0%)

  290. Title : Danish

  291. Language : Danish

  292. Default : No

  293. Forced : No


  294. Text #8

  295. ID : 17

  296. Format : UTF-8

  297. Codec ID : S_TEXT/UTF8

  298. Codec ID/Info : UTF-8 Plain Text

  299. Duration : 1 h 33 min

  300. Bit rate : 60 b/s

  301. Count of elements : 1255

  302. Stream size : 41.7 KiB (0%)

  303. Title : Dutch

  304. Language : Dutch

  305. Default : No

  306. Forced : No


  307. Text #9

  308. ID : 18

  309. Format : UTF-8

  310. Codec ID : S_TEXT/UTF8

  311. Codec ID/Info : UTF-8 Plain Text

  312. Duration : 1 h 35 min

  313. Bit rate : 58 b/s

  314. Count of elements : 1434

  315. Stream size : 41.0 KiB (0%)

  316. Title : Finnish

  317. Language : Finnish

  318. Default : No

  319. Forced : No


  320. Text #10

  321. ID : 19

  322. Format : UTF-8

  323. Codec ID : S_TEXT/UTF8

  324. Codec ID/Info : UTF-8 Plain Text

  325. Duration : 1 h 35 min

  326. Bit rate : 60 b/s

  327. Count of elements : 1437

  328. Stream size : 42.7 KiB (0%)

  329. Title : French

  330. Language : French

  331. Default : No

  332. Forced : No


  333. Text #11

  334. ID : 20

  335. Format : UTF-8

  336. Codec ID : S_TEXT/UTF8

  337. Codec ID/Info : UTF-8 Plain Text

  338. Duration : 1 h 35 min

  339. Bit rate : 64 b/s

  340. Count of elements : 1473

  341. Stream size : 45.4 KiB (0%)

  342. Title : German

  343. Language : German

  344. Default : No

  345. Forced : No


  346. Text #12

  347. ID : 21

  348. Format : UTF-8

  349. Codec ID : S_TEXT/UTF8

  350. Codec ID/Info : UTF-8 Plain Text

  351. Duration : 1 h 35 min

  352. Bit rate : 109 b/s

  353. Count of elements : 1504

  354. Stream size : 76.6 KiB (0%)

  355. Title : Greek

  356. Language : Greek

  357. Default : No

  358. Forced : No


  359. Text #13

  360. ID : 22

  361. Format : UTF-8

  362. Codec ID : S_TEXT/UTF8

  363. Codec ID/Info : UTF-8 Plain Text

  364. Duration : 1 h 33 min

  365. Bit rate : 101 b/s

  366. Count of elements : 1485

  367. Stream size : 70.0 KiB (0%)

  368. Title : Hebrew

  369. Language : Hebrew

  370. Default : No

  371. Forced : No


  372. Text #14

  373. ID : 23

  374. Format : UTF-8

  375. Codec ID : S_TEXT/UTF8

  376. Codec ID/Info : UTF-8 Plain Text

  377. Duration : 1 h 35 min

  378. Bit rate : 61 b/s

  379. Count of elements : 1487

  380. Stream size : 43.5 KiB (0%)

  381. Title : Hungarian

  382. Language : Hungarian

  383. Default : No

  384. Forced : No


  385. Text #15

  386. ID : 24

  387. Format : UTF-8

  388. Codec ID : S_TEXT/UTF8

  389. Codec ID/Info : UTF-8 Plain Text

  390. Duration : 1 h 35 min

  391. Bit rate : 62 b/s

  392. Count of elements : 1456

  393. Stream size : 43.9 KiB (0%)

  394. Title : Indonesian

  395. Language : Indonesian

  396. Default : No

  397. Forced : No


  398. Text #16

  399. ID : 25

  400. Format : UTF-8

  401. Codec ID : S_TEXT/UTF8

  402. Codec ID/Info : UTF-8 Plain Text

  403. Duration : 1 h 35 min

  404. Bit rate : 63 b/s

  405. Count of elements : 1515

  406. Stream size : 44.5 KiB (0%)

  407. Title : Italian

  408. Language : Italian

  409. Default : No

  410. Forced : No


  411. Text #17

  412. ID : 26

  413. Format : UTF-8

  414. Codec ID : S_TEXT/UTF8

  415. Codec ID/Info : UTF-8 Plain Text

  416. Duration : 1 h 35 min

  417. Bit rate : 59 b/s

  418. Count of elements : 1526

  419. Stream size : 41.8 KiB (0%)

  420. Title : Japanese

  421. Language : Japanese

  422. Default : No

  423. Forced : No


  424. Text #18

  425. ID : 27

  426. Format : UTF-8

  427. Codec ID : S_TEXT/UTF8

  428. Codec ID/Info : UTF-8 Plain Text

  429. Duration : 1 h 35 min

  430. Bit rate : 79 b/s

  431. Count of elements : 1594

  432. Stream size : 55.6 KiB (0%)

  433. Title : Korean

  434. Language : Korean

  435. Default : No

  436. Forced : No


  437. Text #19

  438. ID : 28

  439. Format : UTF-8

  440. Codec ID : S_TEXT/UTF8

  441. Codec ID/Info : UTF-8 Plain Text

  442. Duration : 1 h 35 min

  443. Bit rate : 59 b/s

  444. Count of elements : 1503

  445. Stream size : 42.0 KiB (0%)

  446. Title : Malay

  447. Language : Malay

  448. Default : No

  449. Forced : No


  450. Text #20

  451. ID : 29

  452. Format : UTF-8

  453. Codec ID : S_TEXT/UTF8

  454. Codec ID/Info : UTF-8 Plain Text

  455. Duration : 1 h 35 min

  456. Bit rate : 55 b/s

  457. Count of elements : 1380

  458. Stream size : 39.0 KiB (0%)

  459. Title : Norwegian Bokmal

  460. Language : Norwegian Bokmal

  461. Default : No

  462. Forced : No


  463. Text #21

  464. ID : 30

  465. Format : UTF-8

  466. Codec ID : S_TEXT/UTF8

  467. Codec ID/Info : UTF-8 Plain Text

  468. Duration : 1 h 35 min

  469. Bit rate : 60 b/s

  470. Count of elements : 1514

  471. Stream size : 42.4 KiB (0%)

  472. Title : Polish

  473. Language : Polish

  474. Default : No

  475. Forced : No


  476. Text #22

  477. ID : 31

  478. Format : UTF-8

  479. Codec ID : S_TEXT/UTF8

  480. Codec ID/Info : UTF-8 Plain Text

  481. Duration : 1 h 33 min

  482. Bit rate : 115 b/s

  483. Count of elements : 1833

  484. Stream size : 78.9 KiB (0%)

  485. Title : Brazilian Portuguese

  486. Language : Portuguese

  487. Default : No

  488. Forced : No


  489. Text #23

  490. ID : 32

  491. Format : UTF-8

  492. Codec ID : S_TEXT/UTF8

  493. Codec ID/Info : UTF-8 Plain Text

  494. Duration : 1 h 22 min

  495. Bit rate : 12 b/s

  496. Count of elements : 307

  497. Stream size : 7.85 KiB (0%)

  498. Title : Brazilian Portuguese (Forced)

  499. Language : Portuguese

  500. Default : No

  501. Forced : Yes


  502. Text #24

  503. ID : 33

  504. Format : UTF-8

  505. Codec ID : S_TEXT/UTF8

  506. Codec ID/Info : UTF-8 Plain Text

  507. Duration : 1 h 33 min

  508. Bit rate : 72 b/s

  509. Count of elements : 1509

  510. Stream size : 49.5 KiB (0%)

  511. Title : Romanian

  512. Language : Romanian

  513. Default : No

  514. Forced : No


  515. Text #25

  516. ID : 34

  517. Format : UTF-8

  518. Codec ID : S_TEXT/UTF8

  519. Codec ID/Info : UTF-8 Plain Text

  520. Duration : 1 h 35 min

  521. Bit rate : 101 b/s

  522. Count of elements : 1509

  523. Stream size : 71.5 KiB (0%)

  524. Title : Russian

  525. Language : Russian

  526. Default : No

  527. Forced : No


  528. Text #26

  529. ID : 35

  530. Format : UTF-8

  531. Codec ID : S_TEXT/UTF8

  532. Codec ID/Info : UTF-8 Plain Text

  533. Duration : 1 h 35 min

  534. Bit rate : 62 b/s

  535. Count of elements : 1516

  536. Stream size : 44.0 KiB (0%)

  537. Title : Spanish

  538. Language : Spanish

  539. Default : No

  540. Forced : No


  541. Text #27

  542. ID : 36

  543. Format : UTF-8

  544. Codec ID : S_TEXT/UTF8

  545. Codec ID/Info : UTF-8 Plain Text

  546. Duration : 1 h 35 min

  547. Bit rate : 63 b/s

  548. Count of elements : 1512

  549. Stream size : 44.2 KiB (0%)

  550. Title : European Spanish

  551. Language : Spanish

  552. Default : No

  553. Forced : No


  554. Text #28

  555. ID : 37

  556. Format : UTF-8

  557. Codec ID : S_TEXT/UTF8

  558. Codec ID/Info : UTF-8 Plain Text

  559. Duration : 1 h 35 min

  560. Bit rate : 59 b/s

  561. Count of elements : 1474

  562. Stream size : 41.8 KiB (0%)

  563. Title : Swedish

  564. Language : Swedish

  565. Default : No

  566. Forced : No


  567. Text #29

  568. ID : 38

  569. Format : UTF-8

  570. Codec ID : S_TEXT/UTF8

  571. Codec ID/Info : UTF-8 Plain Text

  572. Duration : 1 h 35 min

  573. Bit rate : 166 b/s

  574. Count of elements : 1518

  575. Stream size : 117 KiB (0%)

  576. Title : Thai

  577. Language : Thai

  578. Default : No

  579. Forced : No


  580. Text #30

  581. ID : 39

  582. Format : UTF-8

  583. Codec ID : S_TEXT/UTF8

  584. Codec ID/Info : UTF-8 Plain Text

  585. Duration : 1 h 35 min

  586. Bit rate : 61 b/s

  587. Count of elements : 1513

  588. Stream size : 43.3 KiB (0%)

  589. Title : Turkish

  590. Language : Turkish

  591. Default : No

  592. Forced : No


  593. Text #31

  594. ID : 40

  595. Format : UTF-8

  596. Codec ID : S_TEXT/UTF8

  597. Codec ID/Info : UTF-8 Plain Text

  598. Duration : 1 h 35 min

  599. Bit rate : 98 b/s

  600. Count of elements : 1504

  601. Stream size : 69.4 KiB (0%)

  602. Title : Ukrainian

  603. Language : Ukrainian

  604. Default : No

  605. Forced : No


  606. Text #32

  607. ID : 41

  608. Format : UTF-8

  609. Codec ID : S_TEXT/UTF8

  610. Codec ID/Info : UTF-8 Plain Text

  611. Duration : 1 h 35 min

  612. Bit rate : 83 b/s

  613. Count of elements : 1419

  614. Stream size : 58.9 KiB (0%)

  615. Title : Vietnamese

  616. Language : Vietnamese

  617. Default : No

  618. Forced : No


文件下载


除非特别注明,本文『交换生的秘密日记[中文字幕].The.Secret.Diary.of.an.Exchange.Student.2021.1080p.NF.WEB-DL.DDP5.1.x264 5.54GB』来源于互联网机器人自动抓取,非本站原创。 浮游电影网不对本文拥有版权,如有侵犯,请联系邮箱:fuyouu#yandex.com[#换成@]投诉。我们会在15个工作日内删除。 但烦请转载时请标明出处:“本文转载于『浮游电影网』,原文地址:https://5.189.174.242/14221.html

评论吧骚年!

发表你的见解   

昵称*

E-mail*(建议输入,以便收到博主回复的提示邮件)

验证码*

您可以使用eMule或eMule Mod(Windows)、aMule(Win、Linux、Mac)等软件下载eD2k链接。。
eMule收藏集(.emulecollection)文件是您选中的所有链接的列表文件。eMule可以直接下载它们。
按住SHIFT键选择可以选中多个选择框。
可用文件名和大小选择器来选择文件。
文件名选择器帮您根据文件名称或后缀来选择文件。不分大小写。
符号使用:
和:空格( )、+
不包含:-
或:|
转义:一对英文引号("");
匹配开头:^
匹配结尾:$
例如:
选中所有名称中包含有“eMule”或“0.49c”字眼,但不包含有“exe”字眼的:emule|0.49c -exe
选中所有名称的开头是“eMule”,结尾是“0.49c”的:^emule 0.49c$
选中所有名称中带有“eMule 0.49c”的(必须是“eMule 0.49c”,中间没有别的字符,不能是“eMule fake 0.49c”),需要转义:"emule 0.49c"
大小选择器帮您根据文件大小选择文件。