当前位置: 首页 >> 欧美电影 >> 刀锋[双语字幕].The.Razor's.Edge.1946.1080p.BluRay.DTS.x265-10bit 13.88GB >> 正文

刀锋[双语字幕].The.Razor's.Edge.1946.1080p.BluRay.DTS.x265-10bit 13.88GB

2021年09月06日 22:06:18     电影发布:来源于网络     电影分类:欧美电影     评论(0)    

刀锋[双语字幕].The.Razors.Edge.1946.1080p.BluRay.DTS.x265 10bit 13.88GB 剧情片 欧美电影  第1张

◎译 名 刀锋 / 剃刀边缘

◎片 名 The Razor's Edge

◎年 代 1946

◎产 地 美国

◎类 别 剧情

◎语 言 英语 / 法语

◎上映日期 1946-12-09

◎IMDb链接 https://www.imdb.com/title/tt0038873/

◎豆瓣评分 7.7/10 (455人评价)

◎豆瓣链接 https://movie.douban.com/subject/1297508/

◎片 长 145 分钟

◎导 演 爱德芒德·古尔丁 Edmund Goulding (id:1032841)

◎编 剧 拉玛·托尔蒂 Lamar Trotti (id:1029016)

威廉·萨默塞特·毛姆 W. Somerset Maugham (id:1007179)

达里尔·F·扎努克 Darryl F. Zanuck (id:1054366)

◎演 员 泰隆·鲍华 Tyrone Power (id:1048197)

吉恩·蒂尔尼 Gene Tierney (id:1040650)

安妮·巴克斯特 Anne Baxter (id:1048212)

Edna Mae Harris Edna Mae Harris (id:1096954)

Henri Letondal Henri Letondal (id:1120278)

Baldo Minuti Baldo Minuti (id:1121464)

莫里斯·马尔萨克 Maurice Marsac (id:1122281)

勒内·米米厄 Rene Mimieux (id:1123238)

路易斯梅西埃 Louis Mercier (id:1125086)

Jack Gargan Jack Gargan (id:1095629)

Harry Pilcer Harry Pilcer (id:1126646)

Forbes Murray Forbes Murray (id:1127047)

Frances Morris Frances Morris (id:1127281)

Andre Marsaudon Andre Marsaudon (id:1115910)

Jacques Lory Jacques Lory (id:1115814)

Nicholas Kobliansky Nicholas Kobliansky (id:1112420)

Sol Gorss Sol Gorss (id:1098266)

Jamiel Hasson Jamiel Hasson (id:1099290)

弗莱德·格兰姆 Fred Graham (id:1101753)

Isabel La Mal Isabel La Mal (id:1104190)

Cecil Humphreys Cecil Humphreys (id:1104507)

Eddie Le Baron Eddie Le Baron (id:1108237)

Raymond Largay Raymond Largay (id:1108327)

弗兰克·拉铁摩尔 Frank Latimore (id:1110682)

Dorothy Kelly Dorothy Kelly (id:1110908)

Ilia Khmara Ilia Khmara (id:1109050)

Barry Norton Barry Norton (id:1127820)

Mayo Newhall Mayo Newhall (id:1129269)

约翰·文格拉夫 John Wengraf (id:1161185)

Jack Wagner Jack Wagner (id:1161369)

Jack Young Jack Young (id:1161905)

Cobina Wright Sr. Cobina Wright Sr. (id:1164197)

Barrett Whitelaw Barrett Whitelaw (id:1164342)

Bud Wolfe Bud Wolfe (id:1166576)

Crane Whitley Crane Whitley (id:1168829)

Joe Warfield Joe Warfield (id:1169167)

Juan Arzube Juan Arzube (id:1186041)

Serge Krizman Serge Krizman (id:1289043)

Hermine Sterler Hermine Sterler (id:1158196)

Dina Smirnova Dina Smirnova (id:1155516)

Adele St. Mauer Adele St. Mauer (id:1153351)

Manuel París Manuel París (id:1129515)

Albert Pollet Albert Pollet (id:1130127)

约翰·佩恩 John Payne (id:1131316)

Diana Mumby Diana Mumby (id:1134308)

Albert Petit Albert Petit (id:1135086)

马里奥·西莱蒂 Mario Siletti (id:1139319)

Loulette Sablon Loulette Sablon (id:1139902)

Marie Rabasse Marie Rabasse (id:1147942)

科兹摩萨尔多 Cosmo Sardo (id:1147960)

George Sorel George Sorel (id:1150213)

Alexander Pollard Alexander Pollard (id:1127521)

Bert Hicks Bert Hicks (id:1094933)

雅克·卡特兰 Jaque Catelain (id:1008377)

Richard Avonde Richard Avonde (id:1057808)

Demetrius Alexis Demetrius Alexis (id:1059275)

Carmen Beretta Carmen Beretta (id:1061238)

欧仁·博登 Eugene Borden (id:1061346)

Stanislaw Belski Stanislaw Belski (id:1061564)

Eugene Beday Eugene Beday (id:1062662)

Robert Barron Robert Barron (id:1062807)

Wilson Benge Wilson Benge (id:1064014)

Walter Bonn Walter Bonn (id:1064254)

Pati Behrs Pati Behrs (id:1065383)

Robert Cornell Robert Cornell (id:1067453)

John Ardell John Ardell (id:1057433)

赫伯特·马歇尔 Herbert Marshall (id:1055639)

格瑞塔·格兰斯泰德 Greta Granstedt (id:1012799)

露塞尔·沃特森 Lucile Watson (id:1018243)

Frederic Brunn Frederic Brunn (id:1025905)

多萝西·阿伯特 Dorothy Abbott (id:1037388)

克利夫顿·韦伯 Clifton Webb (id:1040793)

爱尔莎·兰切斯特 Elsa Lanchester (id:1041205)

弗里茨·科特讷 Fritz Kortner (id:1048490)

Juan Duval Juan Duval (id:1049048)

戴维·卡文迪什 David Cavendish (id:1067961)

Jack Chefe Jack Chefe (id:1068367)

André Charlot André Charlot (id:1069050)

Jean De Briac Jean De Briac (id:1081960)

Bertha Feducha Bertha Feducha (id:1082320)

Jack Davis Jack Davis (id:1082769)

让·德尔瓦尔 Jean Del Val (id:1083183)

Henri DeSoto Henri DeSoto (id:1083399)

约翰·戴维森 John Davidson (id:1083998)

贝丝·弗劳尔斯 Bess Flowers (id:1084601)

Ray De Ravenne Ray De Ravenne (id:1085002)

George Davis George Davis (id:1086672)

Ben Erway Ben Erway (id:1087646)

Paul Everton Paul Everton (id:1089891)

Marcel De la Brosse Marcel De la Brosse (id:1081229)

Nestor Eristoff Nestor Eristoff (id:1080872)

Renee Carson Renee Carson (id:1069559)

Joseph Burlando Joseph Burlando (id:1069892)

Mary Currier Mary Currier (id:1070626)

乔治布鲁格曼 George Bruggeman (id:1072180)

保罗·布亚尔 Paul Bryar (id:1072437)

Louise Colombet Louise Colombet (id:1072646)

弗兰科·科尔萨罗 Franco Corsaro (id:1073024)

诺埃尔·克拉瓦特 Noel Cravat (id:1074519)

Maurice Brierre Maurice Brierre (id:1077949)

Gordon B. Clarke Gordon B. Clarke (id:1078786)

Alexis Davidoff Alexis Davidoff (id:1080074)

Fred Farrell Fred Farrell (id:1090374)

达里尔·F·扎努克 Darryl F. Zanuck (id:1054366)

阿尔弗雷德·纽曼 Alfred Newman (id:1032541)

亚瑟·C·米勒 Arthur C. Miller (id:1012680)

J. Watson Webb Jr. J. Watson Webb Jr. (id:1017851)

托马斯·利特尔 Thomas Little (id:1116975)

纳森·朱兰 Nathan Juran (id:1050518)

理查德·戴 Richard Day (id:1054493)

本·奈 Ben Nye (id:1126546)

Saul Wurtzel Saul Wurtzel (id:1004281)

◎标 签 毛姆 / 美国 / 改编自毛姆小说 / 名著改编 / 小说改编 / 美国电影 / 1946 / 刀锋

◎简 介

伊莎贝尔(吉恩·蒂尔尼 Gene Tierney 饰)深深的爱着飞行员劳力(泰隆·鲍华 Tyrone Power 饰),然而,刚刚经历过战争摧残的劳力并没有心情谈情说爱,他选择前往巴黎,想要在那里找到生活的意义。一晃眼一年过去,伊莎贝尔前去寻找劳力,却因为受不了那里贫穷的生活而选择了嫁给富家公子格雷(约翰·佩恩 John Payne 饰)。

又是好几年过去,彼时格雷因为种种意外而破了产,伊莎贝尔和伙伴索菲(安妮·巴克斯特 Anne Baxter 饰)再度回到了巴黎。受生活所迫,索菲沦为妓女,劳力不忍看到此情此景,决定拯救索菲,哪知道他的举动引起了伊莎贝尔的妒忌,在伊莎贝尔的设计之下,索菲再一次向深渊滑去。

◎获奖情况 (共6项)

第19届奥斯卡金像奖 (1947)

最佳影片(提名)

最佳男配角(提名)

└──克利夫顿·韦伯 (id:1040793)

最佳女配角

└──安妮·巴克斯特 (id:1048212)

黑白片最佳艺术指导和室内布景(提名)

第4届金球奖 (1947)

电影类 最佳男配角

└──克利夫顿·韦伯 (id:1040793)

电影类 最佳女配角

└──安妮·巴克斯特 (id:1048212)

  1. ##### MediaInfo ######

  2. General

  3. Unique ID : 298722573709334219645728373813979555833 (0xE0BBDFFE80300A506424A5E5F5C6A7F9)

  4. Complete name : The.Razor's.Edge.1946.1080p.BluRay.DTS.x265-10bit-10007@BBQDDQ.COM.mkv

  5. Format : Matroska

  6. Format version : Version 4

  7. File size : 13.9 GiB

  8. Duration : 2 h 24 min

  9. Overall bit rate : 13.7 Mb/s

  10. Movie name : The Razor's Edge 1946 1080p BluRay DTS x265-10bit-10007@BBQDDQ.COM

  11. Encoded date : UTC 2021-09-05 11:06:33

  12. Writing application : mkvmerge v38.0.0 ('The Silent Type') 64-bit

  13. Writing library : libebml v1.3.9 + libmatroska v1.5.2


  14. Video

  15. ID : 1

  16. Format : HEVC

  17. Format/Info : High Efficiency Video Coding

  18. Format profile : Main 10@L5.1@High

  19. Codec ID : V_MPEGH/ISO/HEVC

  20. Duration : 2 h 24 min

  21. Bit rate : 12.8 Mb/s

  22. Width : 1 920 pixels

  23. Height : 1 080 pixels

  24. Display aspect ratio : 16:9

  25. Frame rate mode : Constant

  26. Frame rate : 23.976 (24000/1001/53354) FPS

  27. Color space : YUV

  28. Chroma subsampling : 4:2:0

  29. Bit depth : 10 bits

  30. Bits/(Pixel*Frame) : 0.258

  31. Stream size : 13.0 GiB (94%)

  32. Title : @HDSky

  33. Writing library : x265 - H.265/HEVC codec

  34. Default : Yes

  35. Forced : No


  36. Audio

  37. ID : 2

  38. Format : DTS

  39. Format/Info : Digital Theater Systems

  40. Codec ID : A_DTS

  41. Duration : 2 h 24 min

  42. Bit rate mode : Constant

  43. Bit rate : 768 kb/s

  44. Channel(s) : 1 channel

  45. Channel layout : C

  46. Sampling rate : 48.0 kHz

  47. Frame rate : 93.750 FPS (512 SPF)

  48. Bit depth : 24 bits

  49. Compression mode : Lossy

  50. Stream size : 796 MiB (6%)

  51. Title : English

  52. Language : English

  53. Default : Yes

  54. Forced : No


  55. Text #1

  56. ID : 3

  57. Format : PGS

  58. Muxing mode : zlib

  59. Codec ID : S_HDMV/PGS

  60. Codec ID/Info : Picture based subtitle format used on BDs/HD-DVDs

  61. Duration : 2 h 23 min

  62. Bit rate : 43.5 kb/s

  63. Count of elements : 3412

  64. Stream size : 44.7 MiB (0%)

  65. Title : CHS

  66. Language : Chinese

  67. Default : Yes

  68. Forced : No


  69. Text #2

  70. ID : 4

  71. Format : PGS

  72. Muxing mode : zlib

  73. Codec ID : S_HDMV/PGS

  74. Codec ID/Info : Picture based subtitle format used on BDs/HD-DVDs

  75. Duration : 2 h 23 min

  76. Bit rate : 44.4 kb/s

  77. Count of elements : 3412

  78. Stream size : 45.5 MiB (0%)

  79. Title : CHT

  80. Language : Chinese

  81. Default : No

  82. Forced : No


  83. Text #3

  84. ID : 5

  85. Format : PGS

  86. Muxing mode : zlib

  87. Codec ID : S_HDMV/PGS

  88. Codec ID/Info : Picture based subtitle format used on BDs/HD-DVDs

  89. Duration : 2 h 23 min

  90. Bit rate : 69.1 kb/s

  91. Count of elements : 3412

  92. Stream size : 70.8 MiB (0%)

  93. Title : CHS&ENG

  94. Language : Chinese

  95. Default : No

  96. Forced : No


  97. Text #4

  98. ID : 6

  99. Format : PGS

  100. Muxing mode : zlib

  101. Codec ID : S_HDMV/PGS

  102. Codec ID/Info : Picture based subtitle format used on BDs/HD-DVDs

  103. Duration : 2 h 23 min

  104. Bit rate : 69.9 kb/s

  105. Count of elements : 3412

  106. Stream size : 71.6 MiB (1%)

  107. Title : CHT&ENG

  108. Language : Chinese

  109. Default : No

  110. Forced : No


  111. Menu

  112. 00:00:00.000 : en:Chapter 01

  113. 00:01:34.511 : en:Chapter 02

  114. 00:08:06.486 : en:Chapter 03

  115. 00:11:23.683 : en:Chapter 04

  116. 00:18:22.435 : en:Chapter 05

  117. 00:22:06.700 : en:Chapter 06

  118. 00:26:37.596 : en:Chapter 07

  119. 00:31:37.229 : en:Chapter 08

  120. 00:41:08.883 : en:Chapter 09

  121. 00:45:59.090 : en:Chapter 10

  122. 00:51:58.157 : en:Chapter 11

  123. 00:57:11.094 : en:Chapter 12

  124. 01:00:34.881 : en:Chapter 13

  125. 01:07:13.696 : en:Chapter 14

  126. 01:13:01.294 : en:Chapter 15

  127. 01:21:04.902 : en:Chapter 16

  128. 01:29:51.428 : en:Chapter 17

  129. 01:32:30.336 : en:Chapter 18

  130. 01:34:39.883 : en:Chapter 19

  131. 01:40:01.370 : en:Chapter 20

  132. 01:44:30.598 : en:Chapter 21

  133. 01:51:11.206 : en:Chapter 22

  134. 01:56:47.250 : en:Chapter 23

  135. 02:03:04.377 : en:Chapter 24

  136. 02:07:15.878 : en:Chapter 25

  137. 02:13:04.602 : en:Chapter 26

  138. 02:18:49.321 : en:Chapter 27

  139. 02:22:37.632 : en:Chapter 28


文件下载


除非特别注明,本文『刀锋[双语字幕].The.Razor's.Edge.1946.1080p.BluRay.DTS.x265-10bit 13.88GB』来源于互联网机器人自动抓取,非本站原创。 浮游电影网不对本文拥有版权,如有侵犯,请联系邮箱:fuyouu#yandex.com[#换成@]投诉。我们会在15个工作日内删除。 但烦请转载时请标明出处:“本文转载于『浮游电影网』,原文地址:https://www.fuyouu.com/14219.html

评论吧骚年!

发表你的见解   

昵称*

E-mail*(建议输入,以便收到博主回复的提示邮件)

验证码*

您可以使用eMule或eMule Mod(Windows)、aMule(Win、Linux、Mac)等软件下载eD2k链接。。
eMule收藏集(.emulecollection)文件是您选中的所有链接的列表文件。eMule可以直接下载它们。
按住SHIFT键选择可以选中多个选择框。
可用文件名和大小选择器来选择文件。
文件名选择器帮您根据文件名称或后缀来选择文件。不分大小写。
符号使用:
和:空格( )、+
不包含:-
或:|
转义:一对英文引号("");
匹配开头:^
匹配结尾:$
例如:
选中所有名称中包含有“eMule”或“0.49c”字眼,但不包含有“exe”字眼的:emule|0.49c -exe
选中所有名称的开头是“eMule”,结尾是“0.49c”的:^emule 0.49c$
选中所有名称中带有“eMule 0.49c”的(必须是“eMule 0.49c”,中间没有别的字符,不能是“eMule fake 0.49c”),需要转义:"emule 0.49c"
大小选择器帮您根据文件大小选择文件。