当前位置: 首页 >> 港台电影 >> 双魂[国粤语配音/中文字幕].Walk.With.Me.2019.1080p.BluRay.x265.10bit.DTS.2Audio 3.98GB >> 正文

双魂[国粤语配音/中文字幕].Walk.With.Me.2019.1080p.BluRay.x265.10bit.DTS.2Audio 3.98GB

2021年09月06日 22:05:19     电影发布:来源于网络     电影分类:港台电影     评论(0)    

双魂[国粤语配音/中文字幕].Walk.With.Me.2019.1080p.BluRay.x265.10bit.DTS.2Audio 3.98GB 恐怖片 惊悚片 港台电影  第1张

◎译 名 双魂 / Walk With Me

◎片 名 雙魂

◎年 代 2018

◎产 地 中国香港 / 马来西亚

◎类 别 惊悚 / 恐怖

◎语 言 粤语

◎上映日期 2019-08-22(中国香港)

◎IMDb链接 https://www.imdb.com/title/tt11067442/

◎豆瓣评分 5.3/10 (1311人评价)

◎豆瓣链接 https://movie.douban.com/subject/30198980/

◎导 演 李勇昌 Ryon Lee (id:1340234)

◎编 剧 李勇昌 Ryon Lee (id:1340234)

◎演 员 卫诗雅 Michelle Wai (id:1313357)

林德信 Alex Lam (id:1336855)

吴耀汉 Richard Ng (id:1037408)

戚玉武 Yuwu Qi (id:1037547)

吴浣仪 Yuen Yee Ng (id:1324439)

关宝慧 Emily Kwan (id:1316564)

吴嘉龙 Carl Wu (id:1214684)

庄雪梅 Rosa Chong (id:1328383)

高志森 Clifton Ko (id:1281025)

乔宝宝 Gill Mohindepaul Singh (id:1315854)

张启乐 Ben Cheung (id:1375544)

文佩卿 Peiqing Wen (id:1336831)

◎标 签 恐怖 / 香港 / 悬疑 / 惊悚 / 香港电影 / 精神分裂 / 2019 / 卫诗雅

◎简 介

当一个人的身体里住个极端的灵魂,到底会造成怎样的结果?

马宥心(卫诗雅-饰)自小得不到父母的关爱,她在上班的制衣工厂里受尽其他工友欺凌却不敢反抗,又常感到有一个束著“孖辨”的小女孩跟着她。母亲(吴浣仪-饰)更对此表现得非常敏感,让宥心觉得“孖辨”就是意外流产的弟弟替身。正当疑云重重之际,宥心重遇阳光开朗的儿时玩伴沈旭(林德信-饰), 慢慢从他身上学会捍卫自己,偷偷向“孖辨”许愿希望它帮助杀死伤害她的人。没多久,沈旭在大屋的天台发现失踪多时的马父(吴耀汉-饰)尸体;同时,欺凌宥心的工厂女工又遭遇不测…

  1. ##### MediaInfo ######

  2. General

  3. Unique ID : 278372082115718541826432499731833766365 (0xD16C834AFA1DC897FF79DFCEC82F41DD)

  4. Complete name : Walk.With.Me.2019.1080p.BluRay.x265.10bit.DTS.2Audio-10017@BBQDDQ.COM.mkv

  5. Format : Matroska

  6. Format version : Version 4

  7. File size : 3.98 GiB

  8. Duration : 1 h 31 min

  9. Overall bit rate : 6 225 kb/s

  10. Movie name : Walk With Me - Blu-ray?

  11. Encoded date : UTC 2021-09-05 17:24:31

  12. Writing application : mkvmerge v61.0.0 ('So') 64-bit

  13. Writing library : libebml v1.4.2 + libmatroska v1.6.4

  14. Cover : Yes

  15. Attachments : cover.jpg


  16. Video

  17. ID : 1

  18. Format : HEVC

  19. Format/Info : High Efficiency Video Coding

  20. Format profile : Main 10@L4@Main

  21. Codec ID : V_MPEGH/ISO/HEVC

  22. Duration : 1 h 31 min

  23. Bit rate : 3 916 kb/s

  24. Width : 1 920 pixels

  25. Height : 804 pixels

  26. Display aspect ratio : 2.40:1

  27. Frame rate mode : Constant

  28. Frame rate : 24.000 FPS

  29. Color space : YUV

  30. Chroma subsampling : 4:2:0

  31. Bit depth : 10 bits

  32. Bits/(Pixel*Frame) : 0.106

  33. Stream size : 2.51 GiB (63%)

  34. Writing library : x265 3.5+2-g2b25c9ba0+45:[Windows][GCC 10.2.0][64 bit] Yuuki 10bit+8bit+12bit

  35. Encoding settings : rc=crf / crf=16.0000 / qcomp=0.65 / qpstep=4 / stats-write=0 / stats-read=0 / no-lossless / no-cu-lossless / aq-mode=3 / aq-strength=0.80 / cbqpoffs=0 / crqpoffs=0 / ipratio=1.40 / pbratio=1.30 / psy-rd=2.00 / psy-rdoq=0.00 / deblock=0:0 / ref=6 / limit-refs=1 / no-limit-modes / bframes=8 / b-adapt=2 / bframe-bias=0 / b-pyramid / b-intra / weightp / weightb / min-keyint=24 / max-keyint=240 / rc-lookahead=24 / gop-lookahead=0 / NTMzNTQ=uuDQuD2mJt9fsCf / scenecut=40 / hist-scenecut=0 / radl=0 / max-cu-size=64 / min-cu-size=8 / me=3 / subme=7 / merange=48 / rdoq-level=0 / rd=4 / rdpenalty=0 / dynamic-rd=0.00 / no-rd-refine / ----- / cutree / sao / no-rect / no-amp / no-open-gop / wpp / no-pmode / pme / no-psnr / no-ssim / nr-intra=0 / nr-inter=0 / no-constrained-intra / no-strong-intra-smoothing / max-tu-size=32 / tu-inter-depth=1 / tu-intra-depth=1 / limit-tu=0 / qg-size=32 / qpmax=69 / qpmin=0 / ----- / cpuid=533541111039 / frame-threads=4 / numa-pools=+ / log-level=2 / input-csp=1 / input-res=1920x804 / interlace=0 / level-idc=0 / high-tier=1 / uhd-bd=0 / no-allow-non-conformance / no-repeat-headers / aud / no-hrd / info / hash=0 / no-temporal-layers / lookahead-slices=0 / no-splice / no-intra-refresh / no-ssim-rd / signhide / no-tskip / max-merge=3 / temporal-mvp / no-frame-dup / no-hme / no-analyze-src-pics / no-sao-non-deblock / selective-sao=4 / early-skip / rskip / no-fast-intra / no-tskip-fast / no-splitrd-skip / zone-count=0 / no-strict-cbr / no-rc-grain / no-const-vbv / sar=0 / overscan=0 / videoformat=5 / range=0 / colorprim=2 / transfer=2 / colormatrix=2 / chromaloc=0 / display-window=0 / cll=0,0 / min-luma=0 / max-luma=1023 / log2-max-poc-lsb=8 / vui-timing-info / vui-hrd-info / slices=1 / no-opt-qp-pps / no-opt-ref-list-length-pps / no-multi-pass-opt-rps / scenecut-bias=0.05 / hist-threshold=0.03 / no-opt-cu-delta-qp / no-aq-motion / no-hdr10 / no-hdr10-opt / no-dhdr10-opt / no-idr-recovery-sei / analysis-reuse-level=0 / analysis-save-reuse-level=0 / analysis-load-reuse-level=0 / scale-factor=0 / refine-intra=0 / refine-inter=0 / refine-mv=1 / refine-ctu-distortion=0 / no-limit-sao / ctu-info=0 / no-lowpass-dct / refine-analysis-type=0 / copy-pic=1 / max-ausize-factor=1.0 / no-dynamic-refine / no-single-sei / no-hevc-aq / no-svt / no-field / qp-adaptation-range=1.00 / scenecut-aware-qp=0conformance-window-offsets / right=0 / bottom=0 / NTMzNTQ= / decoder-max-rate=0 / no-vbv-live-multi-pass

  36. Default : Yes

  37. Forced : No


  38. Audio #1

  39. ID : 2

  40. ID in the original source medium : 4353 (0x1101)

  41. Format : E-AC-3

  42. Format/Info : Enhanced AC-3

  43. Commercial name : Dolby Digital Plus

  44. Format profile : Blu-ray Disc

  45. Codec ID : A_EAC3

  46. Duration : 1 h 31 min

  47. Bit rate mode : Constant

  48. Bit rate : 768 kb/s

  49. Channel(s) : 8 channels

  50. Channel layout : L R C LFE Ls Rs Lb Rb

  51. Sampling rate : 48.0 kHz

  52. Frame rate : 31.250 FPS (1536 SPF)

  53. Compression mode : Lossy

  54. Stream size : 503 MiB (12%)

  55. Title : Mandarin

  56. Language : Chinese

  57. Service kind : Complete Main

  58. Default : Yes

  59. Forced : No

  60. Original source medium : Blu-ray


  61. Audio #2

  62. ID : 3

  63. Format : DTS

  64. Format/Info : Digital Theater Systems

  65. Codec ID : A_DTS

  66. Duration : 1 h 31 min

  67. Bit rate mode : Constant

  68. Bit rate : 1 510 kb/s

  69. Channel(s) : 6 channels

  70. Channel layout : C L R Ls Rs LFE

  71. Sampling rate : 48.0 kHz

  72. Frame rate : 93.750 FPS (512 SPF)

  73. Bit depth : 24 bits

  74. Compression mode : Lossy

  75. Stream size : 989 MiB (24%)

  76. Title : Cantonese

  77. Language : Chinese

  78. Default : No

  79. Forced : No


  80. Text #1

  81. ID : 4

  82. ID in the original source medium : 4609 (0x1201)

  83. Format : PGS

  84. Muxing mode : zlib

  85. Codec ID : S_HDMV/PGS

  86. Codec ID/Info : Picture based subtitle format used on BDs/HD-DVDs

  87. Duration : 1 h 26 min

  88. Bit rate : 19.0 kb/s

  89. Count of elements : 1407

  90. Stream size : 11.7 MiB (0%)

  91. Title : chs

  92. Language : Chinese

  93. Default : Yes

  94. Forced : No

  95. Original source medium : Blu-ray


  96. Text #2

  97. ID : 5

  98. ID in the original source medium : 4608 (0x1200)

  99. Format : PGS

  100. Muxing mode : zlib

  101. Codec ID : S_HDMV/PGS

  102. Codec ID/Info : Picture based subtitle format used on BDs/HD-DVDs

  103. Duration : 1 h 26 min

  104. Bit rate : 20.4 kb/s

  105. Count of elements : 1407

  106. Stream size : 12.6 MiB (0%)

  107. Title : cht

  108. Language : Chinese

  109. Default : No

  110. Forced : No

  111. Original source medium : Blu-ray


  112. Text #3

  113. ID : 6

  114. ID in the original source medium : 4610 (0x1202)

  115. Format : PGS

  116. Muxing mode : zlib

  117. Codec ID : S_HDMV/PGS

  118. Codec ID/Info : Picture based subtitle format used on BDs/HD-DVDs

  119. Duration : 1 h 26 min

  120. Bit rate : 21.9 kb/s

  121. Count of elements : 1407

  122. Stream size : 13.5 MiB (0%)

  123. Title : eng

  124. Language : English

  125. Default : No

  126. Forced : No

  127. Original source medium : Blu-ray


  128. Menu

  129. 00:00:00.000 : Chapter 01

  130. 00:06:27.750 : Chapter 02

  131. 00:17:16.625 : Chapter 03

  132. 00:25:17.000 : Chapter 04

  133. 00:33:37.791 : Chapter 05

  134. 00:42:09.041 : Chapter 06

  135. 00:53:09.916 : Chapter 07

  136. 00:58:56.916 : Chapter 08

  137. 01:04:49.291 : Chapter 09

  138. 01:14:18.166 : Chapter 10

  139. 01:19:01.791 : Chapter 11

  140. 01:27:24.208 : Chapter 12


文件下载


除非特别注明,本文『双魂[国粤语配音/中文字幕].Walk.With.Me.2019.1080p.BluRay.x265.10bit.DTS.2Audio 3.98GB』来源于互联网机器人自动抓取,非本站原创。 浮游电影网不对本文拥有版权,如有侵犯,请联系邮箱:fuyouu#yandex.com[#换成@]投诉。我们会在15个工作日内删除。 但烦请转载时请标明出处:“本文转载于『浮游电影网』,原文地址:https://www.fuyouu.com/14218.html

评论吧骚年!

发表你的见解   

昵称*

E-mail*(建议输入,以便收到博主回复的提示邮件)

验证码*

您可以使用eMule或eMule Mod(Windows)、aMule(Win、Linux、Mac)等软件下载eD2k链接。。
eMule收藏集(.emulecollection)文件是您选中的所有链接的列表文件。eMule可以直接下载它们。
按住SHIFT键选择可以选中多个选择框。
可用文件名和大小选择器来选择文件。
文件名选择器帮您根据文件名称或后缀来选择文件。不分大小写。
符号使用:
和:空格( )、+
不包含:-
或:|
转义:一对英文引号("");
匹配开头:^
匹配结尾:$
例如:
选中所有名称中包含有“eMule”或“0.49c”字眼,但不包含有“exe”字眼的:emule|0.49c -exe
选中所有名称的开头是“eMule”,结尾是“0.49c”的:^emule 0.49c$
选中所有名称中带有“eMule 0.49c”的(必须是“eMule 0.49c”,中间没有别的字符,不能是“eMule fake 0.49c”),需要转义:"emule 0.49c"
大小选择器帮您根据文件大小选择文件。