当前位置: 首页 >> 港台电影 >> 常在你左右[国粤语配音/中文字幕].Always.Be.with.You.2017.1080P.BluRay.x265.10bit.DTS.2Audio 8.45GB >> 正文

常在你左右[国粤语配音/中文字幕].Always.Be.with.You.2017.1080P.BluRay.x265.10bit.DTS.2Audio 8.45GB

2021年09月06日 22:02:43     电影发布:来源于网络     电影分类:港台电影     评论(0)    

常在你左右[国粤语配音/中文字幕].Always.Be.with.You.2017.1080P.BluRay.x265.10bit.DTS.2Audio 8.45GB 悬疑片 犯罪片 港台电影  第1张

◎译 名 常在你左右 / 阴阳路之常在你左右 / Accompany You / Always Be with You

◎年 代 2017

◎产 地 中国香港 / 中国大陆

◎类 别 悬疑 / 犯罪

◎语 言 粤语

◎上映日期 2017-10-27(中国大陆)

◎IMDb链接 https://www.imdb.com/title/tt7469972/

◎豆瓣评分 5.1/10 (10721人评价)

◎豆瓣链接 https://movie.douban.com/subject/26961002/

◎片 长 98分钟

◎导 演 邱礼涛 Herman Yau (id:1274313)

◎编 剧 邱礼涛 Herman Yau (id:1274313)

文佩卿 Peiqing Wen (id:1336831)

◎演 员 古天乐 Louis Koo (id:1027577)

张智霖 Julian Cheung (id:1050979)

林家栋 Ka Tung Lam (id:1050329)

蔡卓妍 Charlene Choi (id:1041425)

佘诗曼 Charmaine Sheh (id:1019718)

林雪 Suet Lam (id:1274279)

苑琼丹 King-Tan Yuen (id:1274445)

雨侨 YuKiu Ava (id:1315568)

林德信 Alex Lam (id:1336855)

周祉君 Aaron Chow (id:1365642)

李静仪 Heidi Lee (id:1343968)

罗兰 Lan Law (id:1054340)

胡燕婷 Yanting Hu (id:1447692)

周绰华 Alvin Chow (id:1425958)

黄柏高 Paco Wong Pak Go (id:1343341)

◎标 签 香港 / 惊悚 / 恐怖 / 悬疑 / 2017 / 香港鬼片 / 灵异 / 犯罪

◎简 介

罹患不治之症的David(张智霖 饰),醉驾失控冲向隔邻行车线,休班警员Sam(古天乐 饰)和妻子阿思(佘诗曼 饰)于两车相撞前及时扭軚,避过一劫。David的车和跟在Sam车后的一辆车迎头相撞,司机Patrick无辜惨死。失恋寻死的小红从天台一跃而,恰巧堕到Patrick车顶。此时,新晋歌手Jamie与舅父驾车经过,好奇查看时,遭重型货车撞死。负责处理小红尸体的仵工志强(林家栋 饰),因想还清赌债而偷走了陪葬的龙凤镯,却一直不能将其变卖。Patrick未婚妻雨欣(蔡卓妍 饰),为完成丈夫的遗愿经营渡假屋,却接连发生怪事,David为了赎罪前来暗中帮忙。Jamie的黑胶唱片被扔掉后仍不断重回到Sam和阿思家中,涉及车祸的人无不遇怪事……

  1. ##### MediaInfo ######

  2. General

  3. Unique ID : 221534721087902837531699152668057416940 (0xA6AA0909D8379B4D94A3EC9D2AE034EC)

  4. Complete name : Always.Be.with.You.2017.1080P.BluRay.x265.10bit.DTS.2Audio-10017@BBQDDQ.COM.mkv

  5. Format : Matroska

  6. Format version : Version 4

  7. File size : 8.45 GiB

  8. Duration : 1 h 38 min

  9. Overall bit rate : 12.3 Mb/s

  10. Encoded date : UTC 2021-09-05 08:56:25

  11. Writing application : mkvmerge v55.0.0 ('Waiting For Space') 64-bit

  12. Writing library : libebml v1.4.2 + libmatroska v1.6.4


  13. Video

  14. ID : 1

  15. Format : HEVC

  16. Format/Info : High Efficiency Video Coding

  17. Format profile : Main 10@L4@Main

  18. Codec ID : V_MPEGH/ISO/HEVC

  19. Duration : 1 h 38 min

  20. Bit rate : 9 288 kb/s

  21. Width : 1 920 pixels

  22. Height : 804 pixels

  23. Display aspect ratio : 2.40:1

  24. Frame rate mode : Constant

  25. Frame rate : 24.000 FPS

  26. Color space : YUV

  27. Chroma subsampling : 4:2:0

  28. Bit depth : 10 bits

  29. Bits/(Pixel*Frame) : 0.251

  30. Stream size : 6.36 GiB (75%)

  31. Writing library : x265 3.4+1-g07e3381df+31:[Windows][GCC 10.1.0][64 bit] Yuuki 10bit+8bit+12bit

  32. Encoding settings : rc=crf / crf=19.0000 / qcomp=0.70 / qpstep=4 / stats-write=0 / stats-read=0 / no-lossless / no-cu-lossless / aq-mode=3 / aq-strength=0.70 / cbqpoffs=0 / crqpoffs=0 / ipratio=1.40 / pbratio=1.30 / psy-rd=2.00 / psy-rdoq=0.00 / deblock=0:0 / ref=6 / limit-refs=1 / no-limit-modes / bframes=8 / b-adapt=2 / bframe-bias=0 / b-pyramid / b-intra / weightp / weightb / min-keyint=24 / max-keyint=240 / rc-lookahead=24 / gop-lookahead=0 / NTMzNTQ=uuDQuD2mJt9fsCf / scenecut=40 / hist-scenecut=0 / radl=0 / max-cu-size=64 / min-cu-size=8 / me=3 / subme=7 / merange=48 / rdoq-level=0 / rd=4 / rdpenalty=0 / dynamic-rd=0.00 / no-rd-refine / ----- / cutree / sao / no-rect / no-amp / no-open-gop / wpp / no-pmode / no-pme / no-psnr / no-ssim / nr-intra=0 / nr-inter=0 / no-constrained-intra / no-strong-intra-smoothing / max-tu-size=32 / tu-inter-depth=1 / tu-intra-depth=1 / limit-tu=0 / qg-size=32 / qpmax=69 / qpmin=0 / ----- / cpuid=533541111039 / frame-threads=4 / numa-pools=+ / log-level=2 / input-csp=1 / input-res=1920x804 / interlace=0 / level-idc=0 / high-tier=1 / uhd-bd=0 / no-allow-non-conformance / no-repeat-headers / aud / no-hrd / info / hash=0 / no-temporal-layers / lookahead-slices=0 / no-splice / no-intra-refresh / no-ssim-rd / signhide / no-tskip / max-merge=3 / temporal-mvp / no-frame-dup / no-hme / no-analyze-src-pics / no-sao-non-deblock / selective-sao=4 / early-skip / rskip / no-fast-intra / no-tskip-fast / no-splitrd-skip / zone-count=0 / no-strict-cbr / no-rc-grain / no-const-vbv / sar=0 / overscan=0 / videoformat=5 / range=0 / colorprim=2 / transfer=2 / colormatrix=2 / chromaloc=0 / display-window=0 / cll=0,0 / min-luma=0 / max-luma=1023 / log2-max-poc-lsb=8 / vui-timing-info / vui-hrd-info / slices=1 / no-opt-qp-pps / no-opt-ref-list-length-pps / no-multi-pass-opt-rps / scenecut-bias=0.05 / hist-threshold=0.01 / no-opt-cu-delta-qp / no-aq-motion / no-hdr10 / no-hdr10-opt / no-dhdr10-opt / no-idr-recovery-sei / analysis-reuse-level=0 / analysis-save-reuse-level=0 / analysis-load-reuse-level=0 / scale-factor=0 / refine-intra=0 / refine-inter=0 / refine-mv=1 / refine-ctu-distortion=0 / no-limit-sao / ctu-info=0 / no-lowpass-dct / refine-analysis-type=0 / copy-pic=1 / max-ausize-factor=1.0 / no-dynamic-refine / no-single-sei / no-hevc-aq / no-svt / no-field / qp-adaptation-range=1.00 / no-scenecut-aware-qpconformance-window-offsets / right=0 / bottom=0 / NTMzNTQ= / decoder-max-rate=0

  33. Language : English

  34. Default : Yes

  35. Forced : No


  36. Audio #1

  37. ID : 2

  38. Format : DTS

  39. Format/Info : Digital Theater Systems

  40. Codec ID : A_DTS

  41. Duration : 1 h 38 min

  42. Bit rate mode : Constant

  43. Bit rate : 1 510 kb/s

  44. Channel(s) : 6 channels

  45. Channel layout : C L R Ls Rs LFE

  46. Sampling rate : 48.0 kHz

  47. Frame rate : 93.750 FPS (512 SPF)

  48. Bit depth : 24 bits

  49. Compression mode : Lossy

  50. Stream size : 1.03 GiB (12%)

  51. Title : Cantonese

  52. Language : Chinese

  53. Default : No

  54. Forced : No


  55. Audio #2

  56. ID : 3

  57. Format : DTS

  58. Format/Info : Digital Theater Systems

  59. Codec ID : A_DTS

  60. Duration : 1 h 38 min

  61. Bit rate mode : Constant

  62. Bit rate : 1 510 kb/s

  63. Channel(s) : 6 channels

  64. Channel layout : C L R Ls Rs LFE

  65. Sampling rate : 48.0 kHz

  66. Frame rate : 93.750 FPS (512 SPF)

  67. Bit depth : 24 bits

  68. Compression mode : Lossy

  69. Stream size : 1.03 GiB (12%)

  70. Title : Mandarin

  71. Language : Chinese

  72. Default : Yes

  73. Forced : No


  74. Text #1

  75. ID : 4

  76. ID in the original source medium : 4609 (0x1201)

  77. Format : PGS

  78. Muxing mode : zlib

  79. Codec ID : S_HDMV/PGS

  80. Codec ID/Info : Picture based subtitle format used on BDs/HD-DVDs

  81. Duration : 1 h 31 min

  82. Bit rate : 27.4 kb/s

  83. Count of elements : 2102

  84. Stream size : 18.0 MiB (0%)

  85. Title : chs

  86. Language : Chinese

  87. Default : Yes

  88. Forced : No

  89. Original source medium : Blu-ray


  90. Text #2

  91. ID : 5

  92. ID in the original source medium : 4608 (0x1200)

  93. Format : PGS

  94. Muxing mode : zlib

  95. Codec ID : S_HDMV/PGS

  96. Codec ID/Info : Picture based subtitle format used on BDs/HD-DVDs

  97. Duration : 1 h 31 min

  98. Bit rate : 27.1 kb/s

  99. Count of elements : 2093

  100. Stream size : 17.8 MiB (0%)

  101. Title : cht

  102. Language : Chinese

  103. Default : No

  104. Forced : No

  105. Original source medium : Blu-ray


  106. Text #3

  107. ID : 6

  108. ID in the original source medium : 4610 (0x1202)

  109. Format : PGS

  110. Muxing mode : zlib

  111. Codec ID : S_HDMV/PGS

  112. Codec ID/Info : Picture based subtitle format used on BDs/HD-DVDs

  113. Duration : 1 h 31 min

  114. Bit rate : 32.5 kb/s

  115. Count of elements : 2114

  116. Stream size : 21.3 MiB (0%)

  117. Language : English

  118. Default : No

  119. Forced : No

  120. Original source medium : Blu-ray


  121. Menu

  122. 00:00:00.000 : en:第 01 章

  123. 00:08:30.083 : en:第 02 章

  124. 00:16:44.333 : en:第 03 章

  125. 00:24:32.000 : en:第 04 章

  126. 00:32:13.708 : en:第 05 章

  127. 00:41:06.583 : en:第 06 章

  128. 00:49:11.500 : en:第 07 章

  129. 00:59:56.250 : en:第 08 章

  130. 01:07:37.500 : en:第 09 章

  131. 01:13:05.000 : en:第 10 章

  132. 01:22:31.666 : en:第 11 章

  133. 01:27:26.458 : en:第 12 章


文件下载


除非特别注明,本文『常在你左右[国粤语配音/中文字幕].Always.Be.with.You.2017.1080P.BluRay.x265.10bit.DTS.2Audio 8.45GB』来源于互联网机器人自动抓取,非本站原创。 浮游电影网不对本文拥有版权,如有侵犯,请联系邮箱:fuyouu#yandex.com[#换成@]投诉。我们会在15个工作日内删除。 但烦请转载时请标明出处:“本文转载于『浮游电影网』,原文地址:https://www.fuyouu.com/14216.html

评论吧骚年!

发表你的见解   

昵称*

E-mail*(建议输入,以便收到博主回复的提示邮件)

验证码*

您可以使用eMule或eMule Mod(Windows)、aMule(Win、Linux、Mac)等软件下载eD2k链接。。
eMule收藏集(.emulecollection)文件是您选中的所有链接的列表文件。eMule可以直接下载它们。
按住SHIFT键选择可以选中多个选择框。
可用文件名和大小选择器来选择文件。
文件名选择器帮您根据文件名称或后缀来选择文件。不分大小写。
符号使用:
和:空格( )、+
不包含:-
或:|
转义:一对英文引号("");
匹配开头:^
匹配结尾:$
例如:
选中所有名称中包含有“eMule”或“0.49c”字眼,但不包含有“exe”字眼的:emule|0.49c -exe
选中所有名称的开头是“eMule”,结尾是“0.49c”的:^emule 0.49c$
选中所有名称中带有“eMule 0.49c”的(必须是“eMule 0.49c”,中间没有别的字符,不能是“eMule fake 0.49c”),需要转义:"emule 0.49c"
大小选择器帮您根据文件大小选择文件。