当前位置: 首页 >> 港台电影 >> 三人做世界[国粤语音轨/中文字幕].Heart.Against.Hearts.1992.1080p.BluRay.x265.10bit.2Audios.FLAC.MNHD 7.43GB >> 正文

三人做世界[国粤语音轨/中文字幕].Heart.Against.Hearts.1992.1080p.BluRay.x265.10bit.2Audios.FLAC.MNHD 7.43GB

2021年09月06日 22:01:31     电影发布:来源于网络     电影分类:港台电影     评论(0)    

三人做世界[国粤语音轨/中文字幕].Heart.Against.Hearts.1992.1080p.BluRay.x265.10bit.2Audios.FLAC.MNHD 7.43GB 喜剧片 港台电影  第1张

◎译 名 三人做世界 / Heart Against Hearts

◎年 代 1992

◎产 地 中国香港

◎类 别 喜剧

◎语 言 粤语

◎上映日期 1992-04-16(中国香港)

◎IMDb链接 https://www.imdb.com/title/tt0102826/

◎豆瓣评分 6.4/10 (684人评价)

◎豆瓣链接 https://movie.douban.com/subject/1308426/

◎片 长 98分钟

◎导 演 冼杞然 Stephen Shin (id:1297480)

◎编 剧 冼杞然 Stephen Shin (id:1297480)

李敏才 Man Choi Lee (id:1326368)

黎妙雪 Miu-suet Lai (id:1289259)

◎演 员 林子祥 George Lam (id:1029253)

郑裕玲 Carol 'Do Do' Cheng (id:1070060)

周慧敏 Vivian Chow (id:1042375)

关秀媚 Suki Kwan (id:1033284)

秦沛 Paul Chun (id:1048476)

金燕玲 Elaine Jin (id:1280673)

陈卓欣 Chan Cheuk Yan (id:1349518)

陈欣健 Philip Chan (id:1007245)

关之琳 Rosamund Kwan (id:1028064)

张曼玉 Maggie Cheung (id:1274231)

王日平 Yat Ping Wong (id:1350616)

林子祥 George Lam (id:1029253)

潘迪生 Dickson Poon (id:1294716)

何添 Tim Ho (id:1408607)

吴伟硕 Wai-Shek Ng (id:1373115)

◎标 签 喜剧 / 香港 / 香港电影 / 周慧敏 / 郑裕玲 / 林子祥 / 爱情 / 1992

◎简 介

刘雅历(林子祥 饰)与朱丽娥(郑裕玲 饰)结为了夫妻,与女儿慧敏(周慧敏 饰)一起开始了新的生活。但没想到新生活将迎接挫折——某银行突然倒闭了,雅历所在的广告公司也破产了。面临事业的雅历感到非常沮丧难过,为新生活蒙上了阴霾。

生活还是要继续的,慧敏与丽娥担当起了养活家庭的责任。可是这样以来便令雅历的心理承受着巨大的压力,家人之间的感情也渐渐变淡。

慧敏跟旧同学一起做金融投资,一向聪明的雅历发现了当中的疑点,怀疑是旧同学骗取慧敏及他人的钱财……

  1. ##### MediaInfo ######

  2. General

  3. Unique ID : 157579727856099635534717215049413298135 (0x768CC06C2D3BE51BF2DA580EBC5007D7)

  4. Complete name : Heart.Against.Hearts.1992.1080p.BluRay.x265.10bit.2Audios.FLAC.MNHD-10018@BBQDDQ.COM.mkv

  5. Format : Matroska

  6. Format version : Version 4

  7. File size : 7.43 GiB

  8. Duration : 1 h 43 min

  9. Overall bit rate mode : Variable

  10. Overall bit rate : 10.3 Mb/s

  11. Movie name : Heart.Against.Hearts.1992.1080p.BluRay.x265.10bit.FLAC.MNHD-10018@BBQDDQ.COM.mkv

  12. Encoded date : UTC 2021-09-04 15:06:06

  13. Writing application : mkvmerge v56.1.0 ('My Friend') 64-bit

  14. Writing library : libebml v1.4.2 + libmatroska v1.6.4


  15. Video

  16. ID : 1

  17. Format : HEVC

  18. Format/Info : High Efficiency Video Coding

  19. Format profile : Main 10@L5.1@High

  20. Codec ID : V_MPEGH/ISO/HEVC

  21. Duration : 1 h 43 min

  22. Bit rate : 9 424 kb/s

  23. Width : 1 920 pixels

  24. Height : 1 080 pixels

  25. Display aspect ratio : 16:9

  26. Frame rate mode : Constant

  27. Frame rate : 24.000 FPS

  28. Color space : YUV

  29. Chroma subsampling : 4:2:0

  30. Bit depth : 10 bits

  31. Bits/(Pixel*Frame) : 0.189

  32. Stream size : 6.80 GiB (91%)

  33. Writing library : x265 3.5+9-bf91444e0:[Windows][MSVC 1928][64 bit] 10bit

  34. Encoding settings : cpuid=533541111039 / frame-threads=3 / numa-pools=12 / wpp / pmode / no-pme / no-psnr / no-ssim / log-level=2 / input-csp=1 / input-res=1920x1080 / interlace=0 / total-frames=148686 / level-idc=0 / high-tier=1 / uhd-bd=0 / ref=6 / no-allow-non-conformance / no-repeat-headers / annexb / no-aud / no-eob / no-eos / no-hrd / info / hash=0 / no-temporal-layers / no-open-gop / min-keyint=1 / keyint=250 / gop-lookahead=0 / bframes=8 / b-adapt=2 / b-pyramid / bframe-bias=0 / rc-lookahead=100 / lookahead-slices=0 / NTMzNTQ=uuDQuD2mJt9fsCf / scenecut=40 / hist-scenecut=0 / radl=0 / no-splice / no-intra-refresh / ctu=32 / min-cu-size=8 / no-rect / no-amp / max-tu-size=32 / tu-inter-depth=4 / tu-intra-depth=4 / limit-tu=0 / rdoq-level=2 / dynamic-rd=0.00 / no-ssim-rd / signhide / no-tskip / nr-intra=0 / nr-inter=0 / no-constrained-intra / strong-intra-smoothing / max-merge=5 / limit-refs=0 / no-limit-modes / me=3 / subme=7 / merange=57 / temporal-mvp / no-frame-dup / no-hme / weightp / weightb / no-analyze-src-pics / deblock=-3:-3 / no-sao / no-sao-non-deblock / rd=4 / selective-sao=0 / no-early-skip / no-rskip / no-fast-intra / no-tskip-fast / no-cu-lossless / b-intra / no-splitrd-skip / rdpenalty=0 / psy-rd=1.50 / psy-rdoq=1.00 / no-rd-refine / no-lossless / cbqpoffs=-2 / crqpoffs=-2 / rc=crf / crf=22.5 / qcomp=0.65 / qpstep=4 / stats-write=0 / stats-read=0 / vbv-maxrate=160000 / vbv-bufsize=160000 / vbv-init=0.9 / min-vbv-fullness=50.0 / max-vbv-fullness=80.0 / crf-max=0.0 / crf-min=0.0 / ipratio=1.30 / pbratio=1.20 / aq-mode=1 / aq-strength=1.00 / no-cutree / zone-count=0 / no-strict-cbr / qg-size=8 / no-rc-grain / qpmax=69 / qpmin=0 / no-const-vbv / sar=0 / overscan=0 / videoformat=5 / range=0 / colorprim=1 / transfer=1 / colormatrix=1 / chromaloc=0 / display-window=0 / cll=0,0 / min-luma=0 / max-luma=1023 / log2-max-poc-lsb=8 / vui-timing-info / vui-hrd-info / slices=1 / no-opt-qp-pps / no-opt-ref-list-length-pps / no-multi-pass-opt-rps / scenecut-bias=0.05 / hist-threshold=0.03 / no-opt-cu-delta-qp / no-aq-motion / no-hdr10 / no-hdr10-opt / no-dhdr10-opt / no-idr-recovery-sei / analysis-reuse-level=0 / analysis-save-reuse-level=0 / analysis-load-reuse-level=0 / scale-factor=0 / refine-intra=0 / refine-inter=0 / refine-mv=1 / refine-ctu-distortion=0 / no-limit-sao / ctu-info=0 / no-lowpass-dct / refine-analysis-type=0 / copy-pic=1 / max-ausize-factor=1.0 / no-dynamic-refine / no-single-sei / no-hevc-aq / no-svt / no-field / qp-adaptation-range=1.00 / scenecut-aware-qp=0conformance-window-offsets / right=0 / bottom=0 / NTMzNTQ= / decoder-max-rate=0 / no-vbv-live-multi-pass

  35. Default : Yes

  36. Forced : No

  37. Color range : Limited

  38. Color primaries : BT.709

  39. Transfer characteristics : BT.709

  40. Matrix coefficients : BT.709


  41. Audio #1

  42. ID : 2

  43. Format : FLAC

  44. Format/Info : Free Lossless Audio Codec

  45. Codec ID : A_FLAC

  46. Duration : 1 h 43 min

  47. Bit rate mode : Variable

  48. Bit rate : 378 kb/s

  49. Channel(s) : 2 channels

  50. Channel layout : L R

  51. Sampling rate : 48.0 kHz

  52. Frame rate : 11.719 FPS (4096 SPF)

  53. Bit depth : 16 bits

  54. Compression mode : Lossless

  55. Stream size : 280 MiB (4%)

  56. Title : Mandarin

  57. Writing library : libFLAC 1.2.1 (UTC 2007-09-17)

  58. Language : Chinese

  59. Default : Yes

  60. Forced : No


  61. Audio #2

  62. ID : 3

  63. Format : FLAC

  64. Format/Info : Free Lossless Audio Codec

  65. Codec ID : A_FLAC

  66. Duration : 1 h 43 min

  67. Bit rate mode : Variable

  68. Bit rate : 451 kb/s

  69. Channel(s) : 2 channels

  70. Channel layout : L R

  71. Sampling rate : 48.0 kHz

  72. Frame rate : 11.719 FPS (4096 SPF)

  73. Bit depth : 16 bits

  74. Compression mode : Lossless

  75. Stream size : 333 MiB (4%)

  76. Title : Cantonese

  77. Writing library : libFLAC 1.2.1 (UTC 2007-09-17)

  78. Language : Chinese

  79. Default : No

  80. Forced : No


  81. Text #1

  82. ID : 4

  83. ID in the original source medium : 4609 (0x1201)

  84. Format : PGS

  85. Muxing mode : zlib

  86. Codec ID : S_HDMV/PGS

  87. Codec ID/Info : Picture based subtitle format used on BDs/HD-DVDs

  88. Duration : 1 h 40 min

  89. Bit rate : 46.5 kb/s

  90. Count of elements : 2626

  91. Stream size : 33.5 MiB (0%)

  92. Title : CHS

  93. Language : Chinese

  94. Default : Yes

  95. Forced : No

  96. Original source medium : Blu-ray


  97. Text #2

  98. ID : 5

  99. ID in the original source medium : 4608 (0x1200)

  100. Format : PGS

  101. Muxing mode : zlib

  102. Codec ID : S_HDMV/PGS

  103. Codec ID/Info : Picture based subtitle format used on BDs/HD-DVDs

  104. Duration : 1 h 40 min

  105. Bit rate : 47.4 kb/s

  106. Count of elements : 2624

  107. Stream size : 34.2 MiB (0%)

  108. Title : CHT

  109. Language : Chinese

  110. Default : No

  111. Forced : No

  112. Original source medium : Blu-ray


  113. Text #3

  114. ID : 6

  115. ID in the original source medium : 4610 (0x1202)

  116. Format : PGS

  117. Muxing mode : zlib

  118. Codec ID : S_HDMV/PGS

  119. Codec ID/Info : Picture based subtitle format used on BDs/HD-DVDs

  120. Duration : 1 h 40 min

  121. Bit rate : 55.7 kb/s

  122. Count of elements : 2566

  123. Stream size : 40.1 MiB (1%)

  124. Language : English

  125. Default : No

  126. Forced : No

  127. Original source medium : Blu-ray


  128. Menu

  129. 00:00:00.000 : Chapter 01

  130. 00:08:36.625 : Chapter 02

  131. 00:19:30.666 : Chapter 03

  132. 00:25:02.083 : Chapter 04

  133. 00:33:50.833 : Chapter 05

  134. 00:41:31.458 : Chapter 06

  135. 00:51:01.541 : Chapter 07

  136. 00:59:42.041 : Chapter 08

  137. 01:08:12.083 : Chapter 09

  138. 01:16:47.250 : Chapter 10

  139. 01:27:52.708 : Chapter 11

  140. 01:36:54.000 : Chapter 12


文件下载


除非特别注明,本文『三人做世界[国粤语音轨/中文字幕].Heart.Against.Hearts.1992.1080p.BluRay.x265.10bit.2Audios.FLAC.MNHD 7.43GB』来源于互联网机器人自动抓取,非本站原创。 浮游电影网不对本文拥有版权,如有侵犯,请联系邮箱:fuyouu#yandex.com[#换成@]投诉。我们会在15个工作日内删除。 但烦请转载时请标明出处:“本文转载于『浮游电影网』,原文地址:https://www.fuyouu.com/14215.html

评论吧骚年!

发表你的见解   

昵称*

E-mail*(建议输入,以便收到博主回复的提示邮件)

验证码*

您可以使用eMule或eMule Mod(Windows)、aMule(Win、Linux、Mac)等软件下载eD2k链接。。
eMule收藏集(.emulecollection)文件是您选中的所有链接的列表文件。eMule可以直接下载它们。
按住SHIFT键选择可以选中多个选择框。
可用文件名和大小选择器来选择文件。
文件名选择器帮您根据文件名称或后缀来选择文件。不分大小写。
符号使用:
和:空格( )、+
不包含:-
或:|
转义:一对英文引号("");
匹配开头:^
匹配结尾:$
例如:
选中所有名称中包含有“eMule”或“0.49c”字眼,但不包含有“exe”字眼的:emule|0.49c -exe
选中所有名称的开头是“eMule”,结尾是“0.49c”的:^emule 0.49c$
选中所有名称中带有“eMule 0.49c”的(必须是“eMule 0.49c”,中间没有别的字符,不能是“eMule fake 0.49c”),需要转义:"emule 0.49c"
大小选择器帮您根据文件大小选择文件。