当前位置: 首页 >> 欧美电影 >> 小红帽[双语字幕].Red.Riding.Hood.Extended.Cut.2011.1080p.BluRay.x265.10bit.DD/5.1.MNHD 7.54GB >> 正文

小红帽[双语字幕].Red.Riding.Hood.Extended.Cut.2011.1080p.BluRay.x265.10bit.DD/5.1.MNHD 7.54GB

2021年09月06日 21:59:58     电影发布:来源于网络     电影分类:欧美电影     评论(0)    

小红帽[双语字幕].Red.Riding.Hood.Extended.Cut.2011.1080p.BluRay.x265.10bit.DD/5.1.MNHD 7.54GB 奇幻片 惊悚片 爱情片 剧情片 欧美电影  第1张

◎译 名 小红帽 / 血红帽(台) / The Girl with the Red Riding Hood

◎片 名 Red Riding Hood

◎年 代 2011

◎产 地 美国 / 加拿大

◎类 别 剧情 / 爱情 / 惊悚 / 奇幻

◎语 言 英语

◎上映日期 2011-03-11(美国) / 2011-04-15(英国)

◎IMDb链接 https://www.imdb.com/title/tt1486185/

◎豆瓣评分 5.7/10 (51319人评价)

◎豆瓣链接 https://movie.douban.com/subject/3914500/

◎片 长 100分钟

◎导 演 凯瑟琳·哈德威克 Catherine Hardwicke (id:1027268)

◎演 员 阿曼达·塞弗里德 Amanda Seyfried (id:1053586)

加里·奥德曼 Gary Oldman (id:1010507)

卢卡斯·哈斯 Lukas Haas (id:1002713)

比利·伯克 Billy Burke (id:1036324)

维吉妮娅·马德森 Virginia Madsen (id:1049512)

希罗·弗南德兹 Shiloh Fernandez (id:1032013)

迈克尔·山克斯 Michael Shanks (id:1036402)

朱莉·克里斯蒂 Julie Christie (id:1000086)

马克斯·艾恩斯 Max Irons (id:1027533)

迈克尔·霍根 Michael Hogan (id:1054175)

奥莉维亚·斯提尔·法奥康纳 Olivia Steele Falconer (id:1390424)

梅根·查彭提尔 Megan Charpentier (id:1326373)

劳拉·唐奈里 Laura Donnelly (id:1315121)

莱昂纳多·迪卡普里奥 Leonardo DiCaprio (id:1041029)

布赖恩·赖泽尔 Brian Reitzell (id:1295432)

辛迪·埃文斯 Cindy Evans (id:1427039)

◎标 签 美国 / 惊悚 / 童话 / 悬疑 / 奇幻 / 爱情 / 2011 / 哥特

◎简 介

在静谧的黑暗森林边缘,有一个不知名的村庄,长久以来,关于狼人的各种传闻在这里广为流传。美丽的少女瓦莱丽(阿曼达?赛弗里德Amanda Seyfried 饰)已到成婚之年,家人把她许配给了村子里有钱人家的儿子亨利(马克斯?艾龙斯 Max Irons 饰),然而瓦莱丽真心爱着的却是与自己青梅竹马的樵夫彼得(希罗?费南德兹Shiloh Fernandez 饰)。为了追求真爱,瓦莱丽和彼得决定私奔。然而正当他们计划逃走之时,狼人出现并杀死了瓦莱丽的妹妹。村民们长久的积怨终于在这一刻爆发,他们决定要铲除威胁村民的狼人。残酷的战斗之后,村民们在一座山洞里杀死了一只巨狼。然而山洞中的巨狼并不是传说中的狼人,真正的狼人其实一直隐藏在村民之中……

本片由《暮光之城:暮色》的女导演凯瑟琳?哈德威克(Catherine Hardwicke)执导,惊悚片《孤儿》的编剧大卫?...

◎获奖情况 (共1项)

第2届豆瓣电影鑫像奖 (2012)

豆渣单元 最渣女演员(外语)(提名)

└──阿曼达·塞弗里德 (id:1053586)

  1. ##### MediaInfo ######

  2. General

  3. Unique ID : 110439996156881248221370397955315612746 (0x5315F835746B0D9EAE3E790CF5723C4A)

  4. Complete name : Red.Riding.Hood.Extended.Cut.2011.1080p.BluRay.x265.10bit.DD+5.1.MNHD-10018@BBQDDQ.COM.mkv

  5. Format : Matroska

  6. Format version : Version 4

  7. File size : 7.54 GiB

  8. Duration : 1 h 40 min

  9. Overall bit rate : 10.7 Mb/s

  10. Movie name : Red.Riding.Hood.Extended.Cut.2011.1080p.BluRay.x265.10bit.DD+5.1.MNHD-10018@BBQDDQ.COM

  11. Encoded date : UTC 2021-09-05 09:11:46

  12. Writing application : mkvmerge v60.0.0 ('Are We Copies?') 64-bit

  13. Writing library : libebml v1.4.2 + libmatroska v1.6.4


  14. Video

  15. ID : 1

  16. Format : HEVC

  17. Format/Info : High Efficiency Video Coding

  18. Format profile : Main 10@L5.1@High

  19. Codec ID : V_MPEGH/ISO/HEVC

  20. Duration : 1 h 39 min

  21. Bit rate : 9 316 kb/s

  22. Width : 1 920 pixels

  23. Height : 800 pixels

  24. Display aspect ratio : 2.40:1

  25. Frame rate mode : Constant

  26. Frame rate : 23.976 (24000/1001/53354) FPS

  27. Color space : YUV

  28. Chroma subsampling : 4:2:0

  29. Bit depth : 10 bits

  30. Bits/(Pixel*Frame) : 0.253

  31. Stream size : 6.50 GiB (86%)

  32. Title : ballbal1@FRDS

  33. Writing library : x265 3.5+2-g2b25c9ba0+45:[Windows][GCC 10.2.0][64 bit] Yuuki 10bit

  34. Encoding settings : rc=crf / crf=18.5000 / qcomp=0.65 / qpstep=4 / stats-write=0 / stats-read=0 / vbv-maxrate=160000 / vbv-bufsize=160000 / vbv-init=0.9 / min-vbv-fullness=50.0 / max-vbv-fullness=80.0 / crf-max=0.0 / crf-min=0.0 / no-lossless / no-cu-lossless / aq-mode=1 / aq-strength=1.00 / cbqpoffs=-2 / crqpoffs=-2 / ipratio=1.30 / pbratio=1.20 / psy-rd=1.50 / psy-rdoq=1.00 / deblock=-3:-3 / ref=6 / limit-refs=0 / no-limit-modes / bframes=8 / b-adapt=2 / bframe-bias=0 / b-pyramid / b-intra / weightp / weightb / min-keyint=1 / max-keyint=250 / rc-lookahead=100 / gop-lookahead=0 / NTMzNTQ=uuDQuD2mJt9fsCf / scenecut=40 / hist-scenecut=0 / radl=0 / max-cu-size=32 / min-cu-size=8 / me=3 / subme=7 / merange=57 / rdoq-level=2 / rd=4 / rdpenalty=0 / dynamic-rd=0.00 / no-rd-refine / ----- / no-cutree / no-sao / no-rect / no-amp / no-open-gop / wpp / pmode / no-pme / no-psnr / no-ssim / nr-intra=0 / nr-inter=0 / no-constrained-intra / strong-intra-smoothing / max-tu-size=32 / tu-inter-depth=4 / tu-intra-depth=4 / limit-tu=0 / qg-size=8 / qpmax=69 / qpmin=0 / ----- / cpuid=533541111039 / frame-threads=3 / numa-pools=12 / log-level=2 / input-csp=1 / input-res=1920x800 / interlace=0 / level-idc=0 / high-tier=1 / uhd-bd=0 / no-allow-non-conformance / no-repeat-headers / no-aud / no-hrd / info / hash=0 / no-temporal-layers / lookahead-slices=0 / no-splice / no-intra-refresh / no-ssim-rd / signhide / no-tskip / max-merge=5 / temporal-mvp / no-frame-dup / no-hme / no-analyze-src-pics / no-sao-non-deblock / selective-sao=0 / no-early-skip / no-rskip / no-fast-intra / no-tskip-fast / no-splitrd-skip / zone-count=0 / no-strict-cbr / no-rc-grain / no-const-vbv / sar=0 / overscan=0 / videoformat=5 / range=0 / colorprim=1 / transfer=1 / colormatrix=1 / chromaloc=0 / display-window=0 / cll=0,0 / min-luma=0 / max-luma=1023 / log2-max-poc-lsb=8 / vui-timing-info / vui-hrd-info / slices=1 / no-opt-qp-pps / no-opt-ref-list-length-pps / no-multi-pass-opt-rps / scenecut-bias=0.05 / hist-threshold=0.03 / no-opt-cu-delta-qp / no-aq-motion / no-hdr10 / no-hdr10-opt / no-dhdr10-opt / no-idr-recovery-sei / analysis-reuse-level=0 / analysis-save-reuse-level=0 / analysis-load-reuse-level=0 / scale-factor=0 / refine-intra=0 / refine-inter=0 / refine-mv=1 / refine-ctu-distortion=0 / no-limit-sao / ctu-info=0 / no-lowpass-dct / refine-analysis-type=0 / copy-pic=1 / max-ausize-factor=1.0 / no-dynamic-refine / no-single-sei / no-hevc-aq / no-svt / no-field / qp-adaptation-range=1.00 / scenecut-aware-qp=0conformance-window-offsets / right=0 / bottom=0 / NTMzNTQ= / decoder-max-rate=0 / no-vbv-live-multi-pass

  35. Default : Yes

  36. Forced : No

  37. Color range : Limited

  38. Color primaries : BT.709

  39. Transfer characteristics : BT.709

  40. Matrix coefficients : BT.709


  41. Audio #1

  42. ID : 2

  43. Format : E-AC-3

  44. Format/Info : Enhanced AC-3

  45. Commercial name : Dolby Digital Plus

  46. Codec ID : A_EAC3

  47. Duration : 1 h 40 min

  48. Bit rate mode : Constant

  49. Bit rate : 768 kb/s

  50. Channel(s) : 6 channels

  51. Channel layout : L R C LFE Ls Rs

  52. Sampling rate : 48.0 kHz

  53. Frame rate : 62.500 FPS (768 SPF)

  54. Compression mode : Lossy

  55. Stream size : 552 MiB (7%)

  56. Language : English

  57. Service kind : Complete Main

  58. Default : Yes

  59. Forced : No


  60. Audio #2

  61. ID : 3

  62. Format : AC-3

  63. Format/Info : Audio Coding 3

  64. Commercial name : Dolby Digital

  65. Codec ID : A_AC3

  66. Duration : 1 h 40 min

  67. Bit rate mode : Constant

  68. Bit rate : 640 kb/s

  69. Channel(s) : 6 channels

  70. Channel layout : L R C LFE Ls Rs

  71. Sampling rate : 48.0 kHz

  72. Frame rate : 31.250 FPS (1536 SPF)

  73. Compression mode : Lossy

  74. Stream size : 460 MiB (6%)

  75. Title : Commentary By Amanda Seyfried,Shiloh Fernandez,Max Irons and Director Catherine Hardwicke

  76. Language : English

  77. Service kind : Complete Main

  78. Default : Yes

  79. Forced : No


  80. Text #1

  81. ID : 4

  82. Format : UTF-8

  83. Codec ID : S_TEXT/UTF8

  84. Codec ID/Info : UTF-8 Plain Text

  85. Duration : 1 h 34 min

  86. Bit rate : 64 b/s

  87. Count of elements : 992

  88. Stream size : 44.7 KiB (0%)

  89. Title : CHS&ENG

  90. Language : Chinese

  91. Default : Yes

  92. Forced : No


  93. Text #2

  94. ID : 5

  95. Format : UTF-8

  96. Codec ID : S_TEXT/UTF8

  97. Codec ID/Info : UTF-8 Plain Text

  98. Duration : 1 h 34 min

  99. Bit rate : 64 b/s

  100. Count of elements : 992

  101. Stream size : 44.7 KiB (0%)

  102. Title : CHT&ENG

  103. Language : Chinese

  104. Default : Yes

  105. Forced : No


  106. Text #3

  107. ID : 6

  108. Format : UTF-8

  109. Codec ID : S_TEXT/UTF8

  110. Codec ID/Info : UTF-8 Plain Text

  111. Duration : 1 h 35 min

  112. Bit rate : 29 b/s

  113. Count of elements : 852

  114. Stream size : 20.5 KiB (0%)

  115. Title : CHS

  116. Language : Chinese

  117. Default : Yes

  118. Forced : No


  119. Text #4

  120. ID : 7

  121. Format : UTF-8

  122. Codec ID : S_TEXT/UTF8

  123. Codec ID/Info : UTF-8 Plain Text

  124. Duration : 1 h 35 min

  125. Bit rate : 29 b/s

  126. Count of elements : 852

  127. Stream size : 20.5 KiB (0%)

  128. Title : CHT

  129. Language : Chinese

  130. Default : Yes

  131. Forced : No


  132. Text #5

  133. ID : 8

  134. Format : PGS

  135. Muxing mode : zlib

  136. Codec ID : S_HDMV/PGS

  137. Codec ID/Info : Picture based subtitle format used on BDs/HD-DVDs

  138. Duration : 1 h 38 min

  139. Bit rate : 21.3 kb/s

  140. Count of elements : 2008

  141. Stream size : 15.0 MiB (0%)

  142. Language : English

  143. Default : Yes

  144. Forced : No


  145. Text #6

  146. ID : 9

  147. Format : PGS

  148. Muxing mode : zlib

  149. Codec ID : S_HDMV/PGS

  150. Codec ID/Info : Picture based subtitle format used on BDs/HD-DVDs

  151. Duration : 1 h 33 min

  152. Bit rate : 18.3 kb/s

  153. Count of elements : 1650

  154. Stream size : 12.2 MiB (0%)

  155. Language : Japanese

  156. Default : Yes

  157. Forced : No


  158. Text #7

  159. ID : 10

  160. Format : PGS

  161. Muxing mode : zlib

  162. Codec ID : S_HDMV/PGS

  163. Codec ID/Info : Picture based subtitle format used on BDs/HD-DVDs

  164. Duration : 1 h 39 min

  165. Bit rate : 15.3 kb/s

  166. Count of elements : 1750

  167. Stream size : 10.9 MiB (0%)

  168. Language : French

  169. Default : Yes

  170. Forced : No


  171. Text #8

  172. ID : 11

  173. Format : PGS

  174. Muxing mode : zlib

  175. Codec ID : S_HDMV/PGS

  176. Codec ID/Info : Picture based subtitle format used on BDs/HD-DVDs

  177. Duration : 1 h 38 min

  178. Bit rate : 24.8 kb/s

  179. Count of elements : 2048

  180. Stream size : 17.5 MiB (0%)

  181. Language : German

  182. Default : Yes

  183. Forced : No


  184. Text #9

  185. ID : 12

  186. Format : PGS

  187. Muxing mode : zlib

  188. Codec ID : S_HDMV/PGS

  189. Codec ID/Info : Picture based subtitle format used on BDs/HD-DVDs

  190. Duration : 1 h 39 min

  191. Bit rate : 21.8 kb/s

  192. Count of elements : 2022

  193. Stream size : 15.5 MiB (0%)

  194. Language : Italian

  195. Default : Yes

  196. Forced : No


  197. Text #10

  198. ID : 13

  199. Format : PGS

  200. Muxing mode : zlib

  201. Codec ID : S_HDMV/PGS

  202. Codec ID/Info : Picture based subtitle format used on BDs/HD-DVDs

  203. Duration : 1 h 39 min

  204. Bit rate : 17.0 kb/s

  205. Count of elements : 1672

  206. Stream size : 12.1 MiB (0%)

  207. Language : Spanish

  208. Default : Yes

  209. Forced : No


  210. Text #11

  211. ID : 14

  212. Format : PGS

  213. Muxing mode : zlib

  214. Codec ID : S_HDMV/PGS

  215. Codec ID/Info : Picture based subtitle format used on BDs/HD-DVDs

  216. Duration : 1 h 38 min

  217. Bit rate : 16.5 kb/s

  218. Count of elements : 1464

  219. Stream size : 11.6 MiB (0%)

  220. Language : Dutch

  221. Default : Yes

  222. Forced : No


  223. Text #12

  224. ID : 15

  225. Format : PGS

  226. Muxing mode : zlib

  227. Codec ID : S_HDMV/PGS

  228. Codec ID/Info : Picture based subtitle format used on BDs/HD-DVDs

  229. Duration : 1 h 38 min

  230. Bit rate : 15.8 kb/s

  231. Count of elements : 1342

  232. Stream size : 11.1 MiB (0%)

  233. Language : Danish

  234. Default : Yes

  235. Forced : No


  236. Text #13

  237. ID : 16

  238. Format : PGS

  239. Muxing mode : zlib

  240. Codec ID : S_HDMV/PGS

  241. Codec ID/Info : Picture based subtitle format used on BDs/HD-DVDs

  242. Duration : 1 h 39 min

  243. Bit rate : 15.8 kb/s

  244. Count of elements : 1534

  245. Stream size : 11.3 MiB (0%)

  246. Language : Finnish

  247. Default : Yes

  248. Forced : No


  249. Menu

  250. 00:00:00.000 : :Chapter 1

  251. 00:08:27.215 : :Chapter 2

  252. 00:15:49.115 : :Chapter 3

  253. 00:24:23.212 : :Chapter 4

  254. 00:33:14.659 : :Chapter 5

  255. 00:40:46.569 : :Chapter 6

  256. 00:49:13.701 : :Chapter 7

  257. 00:59:23.894 : :Chapter 8

  258. 01:09:30.750 : :Chapter 9

  259. 01:18:28.454 : :Chapter 10

  260. 01:29:59.394 : :Chapter 11

  261. 01:35:41.444 : :Chapter 12

  262. 01:40:23.809 : :Chapter 13


文件下载


除非特别注明,本文『小红帽[双语字幕].Red.Riding.Hood.Extended.Cut.2011.1080p.BluRay.x265.10bit.DD/5.1.MNHD 7.54GB』来源于互联网机器人自动抓取,非本站原创。 浮游电影网不对本文拥有版权,如有侵犯,请联系邮箱:fuyouu#yandex.com[#换成@]投诉。我们会在15个工作日内删除。 但烦请转载时请标明出处:“本文转载于『浮游电影网』,原文地址:https://5.189.174.242/14214.html

评论吧骚年!

发表你的见解   

昵称*

E-mail*(建议输入,以便收到博主回复的提示邮件)

验证码*

您可以使用eMule或eMule Mod(Windows)、aMule(Win、Linux、Mac)等软件下载eD2k链接。。
eMule收藏集(.emulecollection)文件是您选中的所有链接的列表文件。eMule可以直接下载它们。
按住SHIFT键选择可以选中多个选择框。
可用文件名和大小选择器来选择文件。
文件名选择器帮您根据文件名称或后缀来选择文件。不分大小写。
符号使用:
和:空格( )、+
不包含:-
或:|
转义:一对英文引号("");
匹配开头:^
匹配结尾:$
例如:
选中所有名称中包含有“eMule”或“0.49c”字眼,但不包含有“exe”字眼的:emule|0.49c -exe
选中所有名称的开头是“eMule”,结尾是“0.49c”的:^emule 0.49c$
选中所有名称中带有“eMule 0.49c”的(必须是“eMule 0.49c”,中间没有别的字符,不能是“eMule fake 0.49c”),需要转义:"emule 0.49c"
大小选择器帮您根据文件大小选择文件。