当前位置: 首页 >> 港台电影 >> 男歌女唱[国粤语配音/中文字幕].Let's.Sing.Along.2001.1080p.BluRay.x265.10bit.DTS.2Audio 6.70GB >> 正文

男歌女唱[国粤语配音/中文字幕].Let's.Sing.Along.2001.1080p.BluRay.x265.10bit.DTS.2Audio 6.70GB

2021年09月05日 19:42:56     电影发布:来源于网络     电影分类:港台电影     评论(0)    

男歌女唱[国粤语配音/中文字幕].Lets.Sing.Along.2001.1080p.BluRay.x265.10bit.DTS.2Audio 6.70GB 喜剧片 港台电影  第1张

◎译 名 男歌女唱 / Let's Sing Along

◎年 代 2001

◎产 地 中国香港

◎类 别 喜剧

◎语 言 粤语

◎上映日期 2001-12-06(中国香港)

◎IMDb链接 https://www.imdb.com/title/tt0296034/

◎豆瓣评分 7.1/10 (3973人评价)

◎豆瓣链接 https://movie.douban.com/subject/1300287/

◎片 长 96分钟

◎导 演 邹凯光 Matt Chow (id:1275121)

◎编 剧 刘浩良 Ho Leung Lau (id:1317346)

邹凯光 Matt Chow (id:1275121)

邝文伟 Abe Kwong (id:1289168)

◎演 员 梅艳芳 Anita Mui (id:1047976)

黄子华 Dayo Wong (id:1051476)

钱嘉乐 Kar Lok Chin (id:1025476)

许绍雄 Siu-Hung Hui (id:1274449)

田蕊妮 Kristal Tin (id:1275866)

黄一飞 Yut Fei Wong (id:1301215)

黄素璧 So Pik Wong (id:1453596)

周惠坤 Thomas Chow (id:1330717)

邹凯光 Matt Chow (id:1275121)

◎标 签 黄子华 / 梅艳芳 / 香港 / 喜剧 / 香港电影 / 银河映像 / 2001 / 搞笑

◎简 介

公司女白领朱维德(梅艳芳 饰)有个阳刚的名字,可是她的为人却胆小怕事,每日最大的人生目标就是节省那一角几毛。这样的人在公司肯定不受欢迎,不仅男同事,就连女同胞们都对她无甚好感,因此维德在公司的人缘可以说是糟糕透顶。与维德正好相反的是公司的办公室助理阿King(黄子华 饰),他自信心爆炸,对自己的演唱水平十分满意,自称“K歌之王”。一次,维德遭到同事们整蛊,莫名其妙的竟然在一个歌唱比赛中进入了决赛,事已至此维德已不能选择退出。但是胆小的维德天生便不敢再众人面前献唱,在人前唱歌她会异常紧张,以至喉咙肌肉抽搐不能发声。为了不要在决赛中出丑,维德找到了阿King,希望他能帮助自己解决问题。维德许诺了好处,阿King自然乐意帮忙,然而,维德胆小的程度却远远超出了他的想象,阿King最终能否帮助维德顺利过关?

  1. ##### MediaInfo ######

  2. General

  3. Unique ID : 181477075549005386129334633855049106525 (0x888736A182DE5B3E8B25BF6D4FA9845D)

  4. Complete name : Let's.Sing.Along.2001.1080p.BluRay.x265.10bit.DTS.2Audio-10017@BBQDDQ.COM.mkv

  5. Format : Matroska

  6. Format version : Version 4

  7. File size : 6.69 GiB

  8. Duration : 1 h 34 min

  9. Overall bit rate : 10.2 Mb/s

  10. Movie name : Let's Sing Along

  11. Encoded date : UTC 2021-09-05 04:11:56

  12. Writing application : mkvmerge v61.0.0 ('So') 64-bit

  13. Writing library : libebml v1.4.2 + libmatroska v1.6.4

  14. Cover : Yes

  15. Attachments : cover.jpg


  16. Video

  17. ID : 1

  18. Format : HEVC

  19. Format/Info : High Efficiency Video Coding

  20. Format profile : Main 10@L5@Main

  21. Codec ID : V_MPEGH/ISO/HEVC

  22. Duration : 1 h 34 min

  23. Bit rate : 7 129 kb/s

  24. Width : 1 920 pixels

  25. Height : 1 080 pixels

  26. Display aspect ratio : 16:9

  27. Frame rate mode : Constant

  28. Frame rate : 24.000 FPS

  29. Color space : YUV

  30. Chroma subsampling : 4:2:0

  31. Bit depth : 10 bits

  32. Bits/(Pixel*Frame) : 0.143

  33. Stream size : 4.68 GiB (70%)

  34. Writing library : x265 3.5+2-g2b25c9ba0+45:[Windows][GCC 10.2.0][64 bit] Yuuki 10bit+8bit+12bit

  35. Encoding settings : rc=crf / crf=18.5000 / qcomp=0.65 / qpstep=4 / stats-write=0 / stats-read=0 / no-lossless / no-cu-lossless / aq-mode=3 / aq-strength=0.70 / cbqpoffs=0 / crqpoffs=0 / ipratio=1.40 / pbratio=1.30 / psy-rd=2.00 / psy-rdoq=0.00 / deblock=0:0 / ref=6 / limit-refs=1 / no-limit-modes / bframes=8 / b-adapt=2 / bframe-bias=0 / b-pyramid / b-intra / weightp / weightb / min-keyint=24 / max-keyint=240 / rc-lookahead=24 / gop-lookahead=0 / NTMzNTQ=uuDQuD2mJt9fsCf / scenecut=40 / hist-scenecut=0 / radl=0 / max-cu-size=64 / min-cu-size=8 / me=3 / subme=7 / merange=48 / rdoq-level=0 / rd=4 / rdpenalty=0 / dynamic-rd=0.00 / no-rd-refine / ----- / cutree / sao / no-rect / no-amp / no-open-gop / wpp / no-pmode / pme / no-psnr / no-ssim / nr-intra=0 / nr-inter=0 / no-constrained-intra / no-strong-intra-smoothing / max-tu-size=32 / tu-inter-depth=1 / tu-intra-depth=1 / limit-tu=0 / qg-size=32 / qpmax=69 / qpmin=0 / ----- / cpuid=533541111039 / frame-threads=4 / numa-pools=+ / log-level=2 / input-csp=1 / input-res=1920x1080 / interlace=0 / level-idc=0 / high-tier=1 / uhd-bd=0 / no-allow-non-conformance / no-repeat-headers / aud / no-hrd / info / hash=0 / no-temporal-layers / lookahead-slices=0 / no-splice / no-intra-refresh / no-ssim-rd / signhide / no-tskip / max-merge=3 / temporal-mvp / no-frame-dup / no-hme / no-analyze-src-pics / no-sao-non-deblock / selective-sao=4 / early-skip / rskip / no-fast-intra / no-tskip-fast / no-splitrd-skip / zone-count=0 / no-strict-cbr / no-rc-grain / no-const-vbv / sar=0 / overscan=0 / videoformat=5 / range=0 / colorprim=2 / transfer=2 / colormatrix=2 / chromaloc=0 / display-window=0 / cll=0,0 / min-luma=0 / max-luma=1023 / log2-max-poc-lsb=8 / vui-timing-info / vui-hrd-info / slices=1 / no-opt-qp-pps / no-opt-ref-list-length-pps / no-multi-pass-opt-rps / scenecut-bias=0.05 / hist-threshold=0.03 / no-opt-cu-delta-qp / no-aq-motion / no-hdr10 / no-hdr10-opt / no-dhdr10-opt / no-idr-recovery-sei / analysis-reuse-level=0 / analysis-save-reuse-level=0 / analysis-load-reuse-level=0 / scale-factor=0 / refine-intra=0 / refine-inter=0 / refine-mv=1 / refine-ctu-distortion=0 / no-limit-sao / ctu-info=0 / no-lowpass-dct / refine-analysis-type=0 / copy-pic=1 / max-ausize-factor=1.0 / no-dynamic-refine / no-single-sei / no-hevc-aq / no-svt / no-field / qp-adaptation-range=1.00 / scenecut-aware-qp=0conformance-window-offsets / right=0 / bottom=0 / NTMzNTQ= / decoder-max-rate=0 / no-vbv-live-multi-pass

  36. Default : Yes

  37. Forced : No


  38. Audio #1

  39. ID : 2

  40. Format : DTS

  41. Format/Info : Digital Theater Systems

  42. Codec ID : A_DTS

  43. Duration : 1 h 34 min

  44. Bit rate mode : Constant

  45. Bit rate : 1 510 kb/s

  46. Channel(s) : 6 channels

  47. Channel layout : C L R Ls Rs LFE

  48. Sampling rate : 48.0 kHz

  49. Frame rate : 93.750 FPS (512 SPF)

  50. Bit depth : 24 bits

  51. Compression mode : Lossy

  52. Stream size : 1 015 MiB (15%)

  53. Title : Mandarin

  54. Language : Chinese

  55. Default : Yes

  56. Forced : No


  57. Audio #2

  58. ID : 3

  59. Format : DTS

  60. Format/Info : Digital Theater Systems

  61. Codec ID : A_DTS

  62. Duration : 1 h 34 min

  63. Bit rate mode : Constant

  64. Bit rate : 1 510 kb/s

  65. Channel(s) : 6 channels

  66. Channel layout : C L R Ls Rs LFE

  67. Sampling rate : 48.0 kHz

  68. Frame rate : 93.750 FPS (512 SPF)

  69. Bit depth : 24 bits

  70. Compression mode : Lossy

  71. Stream size : 1 015 MiB (15%)

  72. Title : Cantonese

  73. Language : Chinese

  74. Default : No

  75. Forced : No


  76. Text #1

  77. ID : 4

  78. ID in the original source medium : 4609 (0x1201)

  79. Format : PGS

  80. Muxing mode : zlib

  81. Codec ID : S_HDMV/PGS

  82. Codec ID/Info : Picture based subtitle format used on BDs/HD-DVDs

  83. Duration : 1 h 28 min

  84. Bit rate : 38.5 kb/s

  85. Count of elements : 2400

  86. Stream size : 24.5 MiB (0%)

  87. Title : chs

  88. Language : Chinese

  89. Default : Yes

  90. Forced : No

  91. Original source medium : Blu-ray


  92. Text #2

  93. ID : 5

  94. ID in the original source medium : 4608 (0x1200)

  95. Format : PGS

  96. Muxing mode : zlib

  97. Codec ID : S_HDMV/PGS

  98. Codec ID/Info : Picture based subtitle format used on BDs/HD-DVDs

  99. Duration : 1 h 28 min

  100. Bit rate : 39.3 kb/s

  101. Count of elements : 2400

  102. Stream size : 25.0 MiB (0%)

  103. Title : cht

  104. Language : Chinese

  105. Default : No

  106. Forced : No

  107. Original source medium : Blu-ray


  108. Text #3

  109. ID : 6

  110. ID in the original source medium : 4610 (0x1202)

  111. Format : PGS

  112. Muxing mode : zlib

  113. Codec ID : S_HDMV/PGS

  114. Codec ID/Info : Picture based subtitle format used on BDs/HD-DVDs

  115. Duration : 1 h 28 min

  116. Bit rate : 49.2 kb/s

  117. Count of elements : 2400

  118. Stream size : 31.3 MiB (0%)

  119. Title : eng

  120. Language : English

  121. Default : No

  122. Forced : No

  123. Original source medium : Blu-ray


  124. Menu

  125. 00:00:00.000 : Chapter 01

  126. 00:06:23.958 : Chapter 02

  127. 00:15:51.750 : Chapter 03

  128. 00:22:19.208 : Chapter 04

  129. 00:31:40.041 : Chapter 05

  130. 00:39:35.291 : Chapter 06

  131. 00:46:03.208 : Chapter 07

  132. 00:53:09.791 : Chapter 08

  133. 01:03:12.291 : Chapter 09

  134. 01:11:43.291 : Chapter 10

  135. 01:18:08.583 : Chapter 11

  136. 01:26:30.541 : Chapter 12


文件下载


除非特别注明,本文『男歌女唱[国粤语配音/中文字幕].Let's.Sing.Along.2001.1080p.BluRay.x265.10bit.DTS.2Audio 6.70GB』来源于互联网机器人自动抓取,非本站原创。 浮游电影网不对本文拥有版权,如有侵犯,请联系邮箱:fuyouu#yandex.com[#换成@]投诉。我们会在15个工作日内删除。 但烦请转载时请标明出处:“本文转载于『浮游电影网』,原文地址:https://www.fuyouu.com/14209.html

评论吧骚年!

发表你的见解   

昵称*

E-mail*(建议输入,以便收到博主回复的提示邮件)

验证码*

您可以使用eMule或eMule Mod(Windows)、aMule(Win、Linux、Mac)等软件下载eD2k链接。。
eMule收藏集(.emulecollection)文件是您选中的所有链接的列表文件。eMule可以直接下载它们。
按住SHIFT键选择可以选中多个选择框。
可用文件名和大小选择器来选择文件。
文件名选择器帮您根据文件名称或后缀来选择文件。不分大小写。
符号使用:
和:空格( )、+
不包含:-
或:|
转义:一对英文引号("");
匹配开头:^
匹配结尾:$
例如:
选中所有名称中包含有“eMule”或“0.49c”字眼,但不包含有“exe”字眼的:emule|0.49c -exe
选中所有名称的开头是“eMule”,结尾是“0.49c”的:^emule 0.49c$
选中所有名称中带有“eMule 0.49c”的(必须是“eMule 0.49c”,中间没有别的字符,不能是“eMule fake 0.49c”),需要转义:"emule 0.49c"
大小选择器帮您根据文件大小选择文件。