当前位置: 首页 >> 国产电影 >> 人潮汹涌[国粤语配音/中文字幕].End.Game.2021.1080p.BluRay.x265.10bit.DTS.2Audio 4.45GB >> 正文

人潮汹涌[国粤语配音/中文字幕].End.Game.2021.1080p.BluRay.x265.10bit.DTS.2Audio 4.45GB

2021年09月05日 19:27:07     电影发布:来源于网络     电影分类:国产电影     评论(0)    

人潮汹涌[国粤语配音/中文字幕].End.Game.2021.1080p.BluRay.x265.10bit.DTS.2Audio 4.45GB 犯罪片 喜剧片 国产电影  第1张

◎译 名 人潮汹涌 / End Game / Endgame

◎年 代 2021

◎产 地 中国大陆 / 中国香港

◎类 别 喜剧 / 犯罪

◎语 言 汉语普通话

◎上映日期 2021-02-12(中国大陆)

◎IMDb链接 https://www.imdb.com/title/tt11564214/

◎豆瓣评分 6.7/10 (338588人评价)

◎豆瓣链接 https://movie.douban.com/subject/34880302/

◎片 长 119分钟

◎导 演 饶晓志 Xiaozhi Rao (id:1326752)

◎编 剧 饶晓志 Xiaozhi Rao (id:1326752)

范翔 Xiang Fan (id:1404396)

李想 Xiang Li (id:1429453)

内田贤治 Kenji Uchida (id:1309342)

◎演 员 刘德华 Andy Lau (id:1054424)

肖央 Yang Xiao (id:1274979)

万茜 Qian Wan (id:1315477)

程怡 Yi Cheng (id:1325067)

黄小蕾 Xiaolei Huang (id:1316146)

国义骞 Yiqian Guo (id:1413852)

狄志杰 Chih-Chieh Ti (id:1314733)

郭京飞 Jingfei Guo (id:1274663)

刘天佐 Tianzuo Liu (id:1318324)

路阳 Yang Lu (id:1321200)

郭帆 Frant Gwo (id:1276086)

刘浩良 Ho Leung Lau (id:1317346)

饶晓志 Xiaozhi Rao (id:1326752)

雷佳音 Jiayin Lei (id:1312940)

史航 Hang Shi (id:1275948)

魏之皓 Zhihao Wei (id:1376608)

王学兵 Xuebing Wang (id:1274550)

林海 Hai Lin (id:1326389)

隋凯 Michael Stephen Kai Sui (id:1319315)

卫莱 Lai Wei (id:1326121)

张占义 Zhanyi Zhang (id:1424741)

王戈 Ge Wang (id:1375802)

张庆庆 Qingqing Zhang (id:1326753)

张宁 Ning Zhang (id:1410503)

顾晓东 Xiaodong Gu (id:1313640)

王子川 Zichuan Wang (id:1411179)

宿树合 Shuhe Su (id:1424742)

徐朝英 Chaoying Xu (id:1418344)

谢承颖 Chengying Xie (id:1326755)

廖健 Jian Liao (id:1409378)

朱超艺 Chaoyi Zhu (id:1425785)

侯玮涛 Weitao Hou (id:1455698)

丁紫宸 Zichen Ding (id:1410868)

李路琦 Luqi Li (id:1431845)

赵梓冲 Zichong Zhao (id:1404397)

廖拟 Ni Liao (id:1363810)

赵一龙 Yilong Zhao (id:1352327)

吴恩璇 Enxuan Wu (id:1452488)

顾晓东 Xiaodong Gu (id:1313640)

张宁 Ning Zhang (id:1410503)

梁琳 Lin Liang (id:1400716)

刘德华 Andy Lau (id:1054424)

肖央 Yang Xiao (id:1274979)

邵剑秋 Kim-Chau Shiu (id:1413263)

孙永焕 Yonghuan Sun (id:1426832)

郭帆 Frant Gwo (id:1276086)

饶晓志 Xiaozhi Rao (id:1326752)

杨受成 Albert Yeung (id:1313455)

李德来 Delai Li (id:1417973)

邓讴歌 Ou Ge Deng (id:1397475)

刘若英 René Liu (id:1041007)

廖拟 Ni Liao (id:1363810)

舒兴家 Xingjia Shu (id:1446420)

梁婷婷 Tingting Liang (id:1359356)

王钢 Gang Wang (id:1330582)

刘晓莎 Xiaosha Liu (id:1425018)

丁燕来 Yanlai Ding (id:1408965)

曹华 Hua Cao (id:1397916)

海瑞 Pino.Rea (id:1445093)

◎标 签 黑色幽默 / 喜剧 / 2021 / 中国大陆 / 犯罪 / 剧情 / 电影 / 翻拍

◎简 介

陈小萌(肖央 饰)一直渴望成为一名演员,但残酷的现实令他至今扔在龙套的位置上苦苦挣扎。没钱没工作没恋人没朋友还欠了一大笔钱的陈小萌想到了死,可是就连死神都抛弃了他,他数次自杀都以失败告终。

一天,陈小萌去澡堂泡澡,意外邂逅了一位神秘且富有的男子(刘德华 饰),该男子在澡堂里意外摔倒昏迷被送进了医院,拾得了他的储物室手环的陈小萌决定顶替他的身份,享受一下富人的生活。头部的撞击令男子失忆了,凭借着零星的线索,他认定自己是陈小萌,并且顺藤摸瓜来到了陈小萌的出租屋,希望熟悉的环境能够令他更快的恢复记忆。在此过程中,男子邂逅了名为李想(万茜 饰)的自媒体人,两人之间碰撞出了火花。

  1. ##### MediaInfo ######

  2. General

  3. Unique ID : 5445269153381493437222906798918653772 (0x418B87F419235CC60EA702E7464D74C)

  4. Complete name : End.Game.2021.1080p.BluRay.x265.10bit.DTS.2Audio-10017@BBQDDQ.COM.mkv

  5. Format : Matroska

  6. Format version : Version 4

  7. File size : 4.45 GiB

  8. Duration : 1 h 59 min

  9. Overall bit rate : 5 310 kb/s

  10. Movie name : End Game

  11. Encoded date : UTC 2021-09-04 18:14:30

  12. Writing application : mkvmerge v61.0.0 ('So') 64-bit

  13. Writing library : libebml v1.4.2 + libmatroska v1.6.4

  14. Cover : Yes

  15. Attachments : cover.jpg / WenQuanWeiMiHei-1.ttf


  16. Video

  17. ID : 1

  18. Format : HEVC

  19. Format/Info : High Efficiency Video Coding

  20. Format profile : Main 10@L4@Main

  21. Codec ID : V_MPEGH/ISO/HEVC

  22. Duration : 1 h 59 min

  23. Bit rate : 3 152 kb/s

  24. Width : 1 920 pixels

  25. Height : 756 pixels

  26. Display aspect ratio : 2.540

  27. Frame rate mode : Constant

  28. Frame rate : 24.000 FPS

  29. Color space : YUV

  30. Chroma subsampling : 4:2:0

  31. Bit depth : 10 bits

  32. Bits/(Pixel*Frame) : 0.090

  33. Stream size : 2.64 GiB (59%)

  34. Writing library : x265 3.5+2-g2b25c9ba0+45:[Windows][GCC 10.2.0][64 bit] Yuuki 10bit+8bit+12bit

  35. Encoding settings : rc=crf / crf=17.0000 / qcomp=0.65 / qpstep=4 / stats-write=0 / stats-read=0 / no-lossless / no-cu-lossless / aq-mode=3 / aq-strength=0.80 / cbqpoffs=0 / crqpoffs=0 / ipratio=1.40 / pbratio=1.30 / psy-rd=2.00 / psy-rdoq=0.00 / deblock=0:0 / ref=6 / limit-refs=1 / no-limit-modes / bframes=8 / b-adapt=2 / bframe-bias=0 / b-pyramid / b-intra / weightp / weightb / min-keyint=24 / max-keyint=240 / rc-lookahead=24 / gop-lookahead=0 / NTMzNTQ=uuDQuD2mJt9fsCf / scenecut=40 / hist-scenecut=0 / radl=0 / max-cu-size=64 / min-cu-size=8 / me=3 / subme=7 / merange=48 / rdoq-level=0 / rd=4 / rdpenalty=0 / dynamic-rd=0.00 / no-rd-refine / ----- / cutree / sao / no-rect / no-amp / no-open-gop / wpp / no-pmode / pme / no-psnr / no-ssim / nr-intra=0 / nr-inter=0 / no-constrained-intra / no-strong-intra-smoothing / max-tu-size=32 / tu-inter-depth=1 / tu-intra-depth=1 / limit-tu=0 / qg-size=32 / qpmax=69 / qpmin=0 / ----- / cpuid=533541111039 / frame-threads=4 / numa-pools=+ / log-level=2 / input-csp=1 / input-res=1920x756 / interlace=0 / level-idc=0 / high-tier=1 / uhd-bd=0 / no-allow-non-conformance / no-repeat-headers / aud / no-hrd / info / hash=0 / no-temporal-layers / lookahead-slices=0 / no-splice / no-intra-refresh / no-ssim-rd / signhide / no-tskip / max-merge=3 / temporal-mvp / no-frame-dup / no-hme / no-analyze-src-pics / no-sao-non-deblock / selective-sao=4 / early-skip / rskip / no-fast-intra / no-tskip-fast / no-splitrd-skip / zone-count=0 / no-strict-cbr / no-rc-grain / no-const-vbv / sar=0 / overscan=0 / videoformat=5 / range=0 / colorprim=2 / transfer=2 / colormatrix=2 / chromaloc=0 / display-window=0 / cll=0,0 / min-luma=0 / max-luma=1023 / log2-max-poc-lsb=8 / vui-timing-info / vui-hrd-info / slices=1 / no-opt-qp-pps / no-opt-ref-list-length-pps / no-multi-pass-opt-rps / scenecut-bias=0.05 / hist-threshold=0.03 / no-opt-cu-delta-qp / no-aq-motion / no-hdr10 / no-hdr10-opt / no-dhdr10-opt / no-idr-recovery-sei / analysis-reuse-level=0 / analysis-save-reuse-level=0 / analysis-load-reuse-level=0 / scale-factor=0 / refine-intra=0 / refine-inter=0 / refine-mv=1 / refine-ctu-distortion=0 / no-limit-sao / ctu-info=0 / no-lowpass-dct / refine-analysis-type=0 / copy-pic=1 / max-ausize-factor=1.0 / no-dynamic-refine / no-single-sei / no-hevc-aq / no-svt / no-field / qp-adaptation-range=1.00 / scenecut-aware-qp=0conformance-window-offsets / right=0 / bottom=0 / NTMzNTQ= / decoder-max-rate=0 / no-vbv-live-multi-pass

  36. Default : Yes

  37. Forced : No


  38. Audio #1

  39. ID : 2

  40. ID in the original source medium : 4353 (0x1101)

  41. Format : AC-3

  42. Format/Info : Audio Coding 3

  43. Commercial name : Dolby Digital

  44. Codec ID : A_AC3

  45. Duration : 1 h 59 min

  46. Bit rate mode : Constant

  47. Bit rate : 640 kb/s

  48. Channel(s) : 6 channels

  49. Channel layout : L R C LFE Ls Rs

  50. Sampling rate : 48.0 kHz

  51. Frame rate : 31.250 FPS (1536 SPF)

  52. Compression mode : Lossy

  53. Stream size : 549 MiB (12%)

  54. Title : Mandarin

  55. Language : Chinese

  56. Service kind : Complete Main

  57. Default : Yes

  58. Forced : No

  59. Original source medium : Blu-ray


  60. Audio #2

  61. ID : 3

  62. Format : DTS

  63. Format/Info : Digital Theater Systems

  64. Codec ID : A_DTS

  65. Duration : 1 h 59 min

  66. Bit rate mode : Constant

  67. Bit rate : 1 510 kb/s

  68. Channel(s) : 6 channels

  69. Channel layout : C L R Ls Rs LFE

  70. Sampling rate : 48.0 kHz

  71. Frame rate : 93.750 FPS (512 SPF)

  72. Bit depth : 24 bits

  73. Compression mode : Lossy

  74. Stream size : 1.26 GiB (28%)

  75. Title : Cantonese

  76. Language : Chinese

  77. Default : No

  78. Forced : No


  79. Text #1

  80. ID : 4

  81. Format : ASS

  82. Codec ID : S_TEXT/ASS

  83. Codec ID/Info : Advanced Sub Station Alpha

  84. Duration : 1 h 56 min

  85. Bit rate : 73 b/s

  86. Count of elements : 1594

  87. Compression mode : Lossless

  88. Stream size : 62.3 KiB (0%)

  89. Title : chs

  90. Language : Chinese

  91. Default : Yes

  92. Forced : No


  93. Text #2

  94. ID : 5

  95. Format : ASS

  96. Codec ID : S_TEXT/ASS

  97. Codec ID/Info : Advanced Sub Station Alpha

  98. Duration : 1 h 56 min

  99. Bit rate : 76 b/s

  100. Count of elements : 1678

  101. Compression mode : Lossless

  102. Stream size : 64.8 KiB (0%)

  103. Title : cht

  104. Language : Chinese

  105. Default : No

  106. Forced : No


  107. Text #3

  108. ID : 6

  109. Format : UTF-8

  110. Codec ID : S_TEXT/UTF8

  111. Codec ID/Info : UTF-8 Plain Text

  112. Duration : 1 h 56 min

  113. Bit rate : 37 b/s

  114. Count of elements : 1659

  115. Stream size : 31.5 KiB (0%)

  116. Title : eng

  117. Language : English

  118. Default : No

  119. Forced : No


  120. Menu

  121. 00:00:00.000 : Chapter 01

  122. 00:10:29.832 : Chapter 02

  123. 00:19:31.290 : Chapter 03

  124. 00:31:42.165 : Chapter 04

  125. 00:38:25.291 : Chapter 05

  126. 00:50:02.583 : Chapter 06

  127. 01:01:27.583 : Chapter 07

  128. 01:09:36.125 : Chapter 08

  129. 01:19:12.541 : Chapter 09

  130. 01:29:57.875 : Chapter 10

  131. 01:40:35.541 : Chapter 11

  132. 01:48:52.125 : Chapter 12



文件下载


除非特别注明,本文『人潮汹涌[国粤语配音/中文字幕].End.Game.2021.1080p.BluRay.x265.10bit.DTS.2Audio 4.45GB』来源于互联网机器人自动抓取,非本站原创。 浮游电影网不对本文拥有版权,如有侵犯,请联系邮箱:fuyouu#yandex.com[#换成@]投诉。我们会在15个工作日内删除。 但烦请转载时请标明出处:“本文转载于『浮游电影网』,原文地址:https://www.fuyouu.com/14206.html

评论吧骚年!

发表你的见解   

昵称*

E-mail*(建议输入,以便收到博主回复的提示邮件)

验证码*

您可以使用eMule或eMule Mod(Windows)、aMule(Win、Linux、Mac)等软件下载eD2k链接。。
eMule收藏集(.emulecollection)文件是您选中的所有链接的列表文件。eMule可以直接下载它们。
按住SHIFT键选择可以选中多个选择框。
可用文件名和大小选择器来选择文件。
文件名选择器帮您根据文件名称或后缀来选择文件。不分大小写。
符号使用:
和:空格( )、+
不包含:-
或:|
转义:一对英文引号("");
匹配开头:^
匹配结尾:$
例如:
选中所有名称中包含有“eMule”或“0.49c”字眼,但不包含有“exe”字眼的:emule|0.49c -exe
选中所有名称的开头是“eMule”,结尾是“0.49c”的:^emule 0.49c$
选中所有名称中带有“eMule 0.49c”的(必须是“eMule 0.49c”,中间没有别的字符,不能是“eMule fake 0.49c”),需要转义:"emule 0.49c"
大小选择器帮您根据文件大小选择文件。