当前位置: 首页 >> 欧美电影 >> 速度与激情9[中文字幕].F9.The.Fast.Saga.2021.2160p.HDR.UHD.BluRay.TrueHD.7.1.Atmos.x265-10bit 17.13GB >> 正文

速度与激情9[中文字幕].F9.The.Fast.Saga.2021.2160p.HDR.UHD.BluRay.TrueHD.7.1.Atmos.x265-10bit 17.13GB

2021年09月05日 19:25:39     电影发布:来源于网络     电影分类:欧美电影     评论(0)    

速度与激情9[中文字幕].F9.The.Fast.Saga.2021.2160p.HDR.UHD.BluRay.TrueHD.7.1.Atmos.x265 10bit 17.13GB 犯罪片 动作片 欧美电影  第1张

◎译 名 速度与激情9 / F9狂野时速(港) / 玩命关头9(台) / 狂野时速9 / 速激9 / FF9 / Fast & Furious 9

◎片 名 F9: The Fast Saga

◎年 代 2021

◎产 地 美国 / 泰国 / 加拿大

◎类 别 动作 / 犯罪

◎语 言 英语

◎上映日期 2021-05-21(中国大陆) / 2021-05-19(韩国) / 2021-06-25(美国)

◎IMDb链接 https://www.imdb.com/title/tt5433138/

◎豆瓣评分 5.3/10 (155294人评价)

◎豆瓣链接 https://movie.douban.com/subject/25728006/

◎片 长 142分钟(中国大陆)

◎导 演 林诣彬 Justin Lin (id:1290066)

◎编 剧 丹·凯西 Daniel Casey (id:1071251)

盖瑞·斯科特·汤普森 Gary Scott Thompson (id:1028134)

克里斯·摩根 Chris Morgan (id:1347624)

◎演 员 范·迪塞尔 Vin Diesel (id:1041020)

约翰·塞纳 John Cena (id:1044883)

米歇尔·罗德里格兹 Michelle Rodriguez (id:1025174)

乔丹娜·布鲁斯特 Jordana Brewster (id:1000036)

泰瑞斯·吉布森 Tyrese Gibson (id:1010486)

卢达·克里斯 Ludacris (id:1049714)

查理兹·塞隆 Charlize Theron (id:1018991)

海伦·米伦 Helen Mirren (id:1054390)

姜成镐 Sung Kang (id:1000166)

娜塔莉·伊曼纽尔 Nathalie Emmanuel (id:1328248)

迈克尔·鲁克 Michael Rooker (id:1002751)

卢卡斯·布莱克 Lucas Black (id:1036315)

杜俊纬 Jason Tobin (id:1414084)

卡迪·B Cardi B (id:1404564)

吉姆·帕拉克 Jim Parrack (id:1315255)

芬恩·科尔 Finn Cole (id:1344701)

安珀·西耶娜 Amber Sienna (id:1434120)

马丁·福特 Martyn Ford (id:1371909)

艾拉·沃克 Ella Walker (id:1446998)

泽井杏奈 Anna Sawai (id:1270490)

图厄·埃尔斯特德·拉斯姆森 Thue Ersted Rasmussen (id:1432965)

米拉吉·格尔比克 Miraj Grbic (id:1181259)

吉米·斯达 Jimmy Star (id:1273873)

莱克斯·艾尔 Lex Elle (id:1419250)

温尼·贝内特 Vinnie Bennett (id:1419615)

马克·克雷尼克 Mark Krenik (id:1428358)

杰森·斯坦森 Jason Statham (id:1049484)

尼尔·H·莫瑞兹 Neal H. Moritz (id:1019194)

布莱恩·泰勒 Brian Tyler (id:1276412)

斯蒂芬·F·温顿 Stephen F. Windon (id:1301075)

◎标 签 动作 / 美国 / 飙车 / 犯罪 / 2021 / 跑车 / 赛车 / 科幻

◎简 介

“唐老大”多姆·托莱多(范·迪塞尔 饰)与莱蒂(米歇尔·罗德里格兹 饰)和他的儿子小布莱恩,过上了远离纷扰的平静生活。然而他们也知道,安宁之下总潜藏着危机。这一次,为了保护他所爱的人,唐老大不得不直面过去。他和伙伴们面临的是一场足以引起世界动荡的阴谋,以及一个前所未遇的一流杀手和高能车手。而这个名叫雅各布(约翰·塞纳 饰)的人,恰巧是多姆遗落在外的亲弟弟。

◎获奖情况 (共2项)

第7届豆瓣电影年度榜单 (2020)

最值得期待的外语电影(提名)

第6届豆瓣电影年度榜单 (2019)

最值得期待的外语电影(提名)

  1. ##### MediaInfo ######

  2. General

  3. Unique ID : 278276163991047506889585103376780021385 (0xD15A0A2A09DD758F0E3B0D1B8B5ECE89)

  4. Complete name : F9.The.Fast.Saga.2021.2160p.HDR.UHD.BluRay.TrueHD.7.1.Atmos.x265-10bit-10007@BBQDDQ.COM.mkv

  5. Format : Matroska

  6. Format version : Version 4

  7. File size : 17.1 GiB

  8. Duration : 2 h 22 min

  9. Overall bit rate mode : Variable

  10. Overall bit rate : 17.2 Mb/s

  11. Movie name : F9 The Fast Saga 2021 2160p HDR UHD BluRay TrueHD 7.1 Atmos x265-10bit-10007@BBQDDQ.COM

  12. Encoded date : UTC 2021-09-04 14:26:24

  13. Writing application : mkvmerge v38.0.0 ('The Silent Type') 64-bit

  14. Writing library : libebml v1.3.9 + libmatroska v1.5.2


  15. Video

  16. ID : 1

  17. Format : HEVC

  18. Format/Info : High Efficiency Video Coding

  19. Format profile : Main 10@L5.1@High

  20. HDR format : SMPTE ST 2086, HDR10 compatible

  21. Codec ID : V_MPEGH/ISO/HEVC

  22. Duration : 2 h 22 min

  23. Bit rate : 13.9 Mb/s

  24. Width : 3 840 pixels

  25. Height : 1 608 pixels

  26. Display aspect ratio : 2.40:1

  27. Frame rate mode : Constant

  28. Frame rate : 23.976 (24000/1001/53354) FPS

  29. Color space : YUV

  30. Chroma subsampling : 4:2:0

  31. Bit depth : 10 bits

  32. Bits/(Pixel*Frame) : 0.094

  33. Stream size : 13.9 GiB (81%)

  34. Title : @HDSky

  35. Writing library : x265 - H.265/HEVC codec

  36. Default : Yes

  37. Forced : No

  38. Color range : Limited

  39. Color primaries : BT.2020

  40. Transfer characteristics : PQ

  41. Matrix coefficients : BT.2020 non-constant

  42. Mastering display color primaries : Display P3

  43. Mastering display luminance : min: 0.0020 cd/m2, max: 1000 cd/m2

  44. Maximum Content Light Level : 739 cd/m2

  45. Maximum Frame-Average Light Level : 331 cd/m2


  46. Audio

  47. ID : 2

  48. Format : MLP FBA 16-ch

  49. Format/Info : Meridian Lossless Packing FBA with 16-channel presentation

  50. Commercial name : Dolby TrueHD with Dolby Atmos

  51. Codec ID : A_TRUEHD

  52. Duration : 2 h 22 min

  53. Bit rate mode : Variable

  54. Bit rate : 3 102 kb/s

  55. Maximum bit rate : 4 590 kb/s

  56. Channel(s) : 8 channels

  57. Channel layout : L R C LFE Ls Rs Lb Rb

  58. Sampling rate : 48.0 kHz

  59. Frame rate : 1 200.000 FPS (40 SPF)

  60. Compression mode : Lossless

  61. Stream size : 3.10 GiB (18%)

  62. Title : English

  63. Language : English

  64. Default : Yes

  65. Forced : No

  66. Number of dynamic objects : 11

  67. Bed channel count : 1 channel

  68. Bed channel configuration : LFE


  69. Text #1

  70. ID : 3

  71. Format : PGS

  72. Muxing mode : zlib

  73. Codec ID : S_HDMV/PGS

  74. Codec ID/Info : Picture based subtitle format used on BDs/HD-DVDs

  75. Duration : 2 h 16 min

  76. Bit rate : 36.3 kb/s

  77. Count of elements : 3838

  78. Stream size : 35.3 MiB (0%)

  79. Title : ENG

  80. Language : English

  81. Default : Yes

  82. Forced : No


  83. Text #2

  84. ID : 4

  85. Format : PGS

  86. Muxing mode : zlib

  87. Codec ID : S_HDMV/PGS

  88. Codec ID/Info : Picture based subtitle format used on BDs/HD-DVDs

  89. Duration : 2 h 12 min

  90. Bit rate : 19.4 kb/s

  91. Count of elements : 2236

  92. Stream size : 18.3 MiB (0%)

  93. Title : CHS

  94. Language : Chinese

  95. Default : No

  96. Forced : No


  97. Text #3

  98. ID : 5

  99. Format : PGS

  100. Muxing mode : zlib

  101. Codec ID : S_HDMV/PGS

  102. Codec ID/Info : Picture based subtitle format used on BDs/HD-DVDs

  103. Duration : 2 h 12 min

  104. Bit rate : 20.1 kb/s

  105. Count of elements : 2236

  106. Stream size : 19.0 MiB (0%)

  107. Title : CHT

  108. Language : Chinese

  109. Default : No

  110. Forced : No


  111. Text #4

  112. ID : 6

  113. Format : PGS

  114. Muxing mode : zlib

  115. Codec ID : S_HDMV/PGS

  116. Codec ID/Info : Picture based subtitle format used on BDs/HD-DVDs

  117. Duration : 2 h 12 min

  118. Bit rate : 33.1 kb/s

  119. Count of elements : 2236

  120. Stream size : 31.3 MiB (0%)

  121. Title : CHS&ENG

  122. Language : Chinese

  123. Default : No

  124. Forced : No


  125. Text #5

  126. ID : 7

  127. Format : PGS

  128. Muxing mode : zlib

  129. Codec ID : S_HDMV/PGS

  130. Codec ID/Info : Picture based subtitle format used on BDs/HD-DVDs

  131. Duration : 2 h 12 min

  132. Bit rate : 33.8 kb/s

  133. Count of elements : 2236

  134. Stream size : 31.9 MiB (0%)

  135. Title : CHT&ENG

  136. Language : Chinese

  137. Default : No

  138. Forced : No


  139. Menu

  140. 00:00:00.000 : en:Chapter 01

  141. 00:04:47.746 : en:Chapter 02

  142. 00:11:10.545 : en:Chapter 03

  143. 00:20:35.901 : en:Chapter 04

  144. 00:25:25.065 : en:Chapter 05

  145. 00:30:25.323 : en:Chapter 06

  146. 00:34:18.473 : en:Chapter 07

  147. 00:42:10.945 : en:Chapter 08

  148. 00:49:36.807 : en:Chapter 09

  149. 00:55:43.215 : en:Chapter 10

  150. 00:59:54.382 : en:Chapter 11

  151. 01:07:55.113 : en:Chapter 12

  152. 01:19:25.761 : en:Chapter 13

  153. 01:28:42.067 : en:Chapter 14

  154. 01:34:48.391 : en:Chapter 15

  155. 01:40:22.641 : en:Chapter 16

  156. 01:50:50.477 : en:Chapter 17

  157. 02:00:55.623 : en:Chapter 18

  158. 02:05:14.966 : en:Chapter 19

  159. 02:10:10.427 : en:Chapter 20


文件下载


除非特别注明,本文『速度与激情9[中文字幕].F9.The.Fast.Saga.2021.2160p.HDR.UHD.BluRay.TrueHD.7.1.Atmos.x265-10bit 17.13GB』来源于互联网机器人自动抓取,非本站原创。 浮游电影网不对本文拥有版权,如有侵犯,请联系邮箱:fuyouu#yandex.com[#换成@]投诉。我们会在15个工作日内删除。 但烦请转载时请标明出处:“本文转载于『浮游电影网』,原文地址:https://www.fuyouu.com/14205.html

评论吧骚年!

发表你的见解   

昵称*

E-mail*(建议输入,以便收到博主回复的提示邮件)

验证码*

您可以使用eMule或eMule Mod(Windows)、aMule(Win、Linux、Mac)等软件下载eD2k链接。。
eMule收藏集(.emulecollection)文件是您选中的所有链接的列表文件。eMule可以直接下载它们。
按住SHIFT键选择可以选中多个选择框。
可用文件名和大小选择器来选择文件。
文件名选择器帮您根据文件名称或后缀来选择文件。不分大小写。
符号使用:
和:空格( )、+
不包含:-
或:|
转义:一对英文引号("");
匹配开头:^
匹配结尾:$
例如:
选中所有名称中包含有“eMule”或“0.49c”字眼,但不包含有“exe”字眼的:emule|0.49c -exe
选中所有名称的开头是“eMule”,结尾是“0.49c”的:^emule 0.49c$
选中所有名称中带有“eMule 0.49c”的(必须是“eMule 0.49c”,中间没有别的字符,不能是“eMule fake 0.49c”),需要转义:"emule 0.49c"
大小选择器帮您根据文件大小选择文件。