当前位置: 首页 >> 日韩电影 >> 漫长的告别[国语配音/中文字幕].A.Long.Goodbye.2019.1080p.WEB-DL.H264.AAC 5.76GB >> 正文

漫长的告别[国语配音/中文字幕].A.Long.Goodbye.2019.1080p.WEB-DL.H264.AAC 5.76GB

2021年09月05日 19:19:29     电影发布:来源于网络     电影分类:日韩电影     评论(0)    

漫长的告别[国语配音/中文字幕].A.Long.Goodbye.2019.1080p.WEB DL.H264.AAC 5.76GB 家庭片 剧情片 日韩电影  第1张

◎译 名 漫长的告别 / 甜咖喱之味(港) / A Long Goodbye / The Long Good-Bye

◎片 名 長いお別れ

◎年 代 2019

◎产 地 日本

◎类 别 剧情 / 家庭

◎语 言 日语

◎上映日期 2020-08-28(中国大陆) / 2019-03-26(香港国际电影节) / 2019-05-31(日本)

◎IMDb链接 https://www.imdb.com/title/tt9657904/

◎豆瓣评分 7.7/10 (26559人评价)

◎豆瓣链接 https://movie.douban.com/subject/30327897/

◎片 长 127分钟

◎导 演 中野量太 Ryota Nakano (id:1352555)

◎编 剧 中野量太 Ryota Nakano (id:1352555)

大野敏哉 Ono Toshiya (id:1382641)

中岛京子 Ky?ko Nakajima (id:1342185)

◎演 员 苍井优 Yu Aoi (id:1018990)

竹内结子 Y?ko Takeuchi (id:1151757)

松原智惠子 Chieko Matsubara (id:1015216)

山崎努 Tsutomu Yamazaki (id:1037053)

蒲田优惟人 Yuito Kamata (id:1411706)

中村伦也 Tomoya Nakamura (id:1275382)

北村有起哉 Yukiya Kitamura (id:1315943)

杉田雷麟 Rairu Sugita (id:1411705)

清水久留巳 Kurumi Shimizu (id:1327412)

仓野章子 Akiko Kurano (id:1012399)

不破万作 Mansaku Fuwa (id:1323495)

冈山一 Hajime Okayama (id:1324129)

池谷伸枝 Nobue Iketani (id:1323966)

藤原季节 Kisetsu Fujiwara (id:1348582)

小市慢太郎 Mantar? Koichi (id:1007656)

松泽匠 Takumi Matsuzawa (id:1344090)

◎标 签 日本 / 家庭 / 亲情 / 温情 / 治愈 / 人生 / 2019 / 剧情

◎简 介

本片改编自中岛京子同名小说,讲述原是中学校长的父亲(山崎努饰)被确诊为认知障碍后,他是如何和妻子曜子(松原智恵子饰)及两个爱女(竹内结子、苍井优饰)度过接下来的时光的。

◎获奖情况 (共1项)

第6届豆瓣电影年度榜单 (2019)

评分最高的日本电影(提名)

  1. ##### MediaInfo ######

  2. General

  3. Unique ID : 23259139348965523643100249398430106462 (0x117F8C1B8B3587FA9AB573113C6B835E)

  4. Complete name : 漫长的告别. A.Long.Goodbye.2019.1080p.WEB-DL.H264.AAC-10006@BBQDDQ.COM.mp4

  5. Format : Matroska

  6. Format version : Version 4

  7. File size : 5.76 GiB

  8. Duration : 2 h 7 min

  9. Overall bit rate : 6 475 kb/s

  10. Encoded date : UTC 2021-07-11 09:07:02

  11. Writing application : mkvmerge v58.0.0 ('Supper's Ready') 64-bit

  12. Writing library : libebml v1.4.2 + libmatroska v1.6.4

  13. Cover : Yes

  14. Attachments : cover.png / cover.png

  15. FileExtension_Invalid : mkv mk3d mka mks


  16. Video

  17. ID : 1

  18. Format : AVC

  19. Format/Info : Advanced Video Codec

  20. Format profile : High@L4

  21. Format settings : CABAC / 4 Ref Frames

  22. Format settings, CABAC : Yes

  23. Format settings, Reference frames : 4 frames

  24. Codec ID : V_MPEG4/ISO/AVC

  25. Duration : 2 h 7 min

  26. Bit rate : 5 830 kb/s

  27. Width : 1 920 pixels

  28. Height : 1 038 pixels

  29. Display aspect ratio : 1.85:1

  30. Frame rate mode : Constant

  31. Frame rate : 24.000 FPS

  32. Color space : YUV

  33. Chroma subsampling : 4:2:0

  34. Bit depth : 8 bits

  35. Scan type : Progressive

  36. Bits/(Pixel*Frame) : 0.122

  37. Stream size : 5.19 GiB (90%)

  38. Writing library : BiliBili H264 Encoder v1.0

  39. Default : Yes

  40. Forced : No

  41. Color range : Limited

  42. Color primaries : BT.709

  43. Transfer characteristics : BT.709

  44. Matrix coefficients : BT.709


  45. Audio #1

  46. ID : 2

  47. Format : AAC LC

  48. Format/Info : Advanced Audio Codec Low Complexity

  49. Codec ID : A_AAC-2

  50. Duration : 2 h 7 min

  51. Bit rate : 320 kb/s

  52. Channel(s) : 2 channels

  53. Channel layout : L R

  54. Sampling rate : 48.0 kHz

  55. Frame rate : 46.875 FPS (1024 SPF)

  56. Compression mode : Lossy

  57. Stream size : 292 MiB (5%)

  58. Language : Japanese

  59. Default : Yes

  60. Forced : No


  61. Audio #2

  62. ID : 3

  63. Format : AAC LC

  64. Format/Info : Advanced Audio Codec Low Complexity

  65. Codec ID : A_AAC-2

  66. Duration : 2 h 7 min

  67. Bit rate : 320 kb/s

  68. Channel(s) : 2 channels

  69. Channel layout : L R

  70. Sampling rate : 48.0 kHz

  71. Frame rate : 46.875 FPS (1024 SPF)

  72. Compression mode : Lossy

  73. Stream size : 292 MiB (5%)

  74. Language : Chinese

  75. Default : Yes

  76. Forced : No



文件下载


除非特别注明,本文『漫长的告别[国语配音/中文字幕].A.Long.Goodbye.2019.1080p.WEB-DL.H264.AAC 5.76GB』来源于互联网机器人自动抓取,非本站原创。 浮游电影网不对本文拥有版权,如有侵犯,请联系邮箱:fuyouu#yandex.com[#换成@]投诉。我们会在15个工作日内删除。 但烦请转载时请标明出处:“本文转载于『浮游电影网』,原文地址:https://5.189.174.242/14202.html

评论吧骚年!

发表你的见解   

昵称*

E-mail*(建议输入,以便收到博主回复的提示邮件)

验证码*

您可以使用eMule或eMule Mod(Windows)、aMule(Win、Linux、Mac)等软件下载eD2k链接。。
eMule收藏集(.emulecollection)文件是您选中的所有链接的列表文件。eMule可以直接下载它们。
按住SHIFT键选择可以选中多个选择框。
可用文件名和大小选择器来选择文件。
文件名选择器帮您根据文件名称或后缀来选择文件。不分大小写。
符号使用:
和:空格( )、+
不包含:-
或:|
转义:一对英文引号("");
匹配开头:^
匹配结尾:$
例如:
选中所有名称中包含有“eMule”或“0.49c”字眼,但不包含有“exe”字眼的:emule|0.49c -exe
选中所有名称的开头是“eMule”,结尾是“0.49c”的:^emule 0.49c$
选中所有名称中带有“eMule 0.49c”的(必须是“eMule 0.49c”,中间没有别的字符,不能是“eMule fake 0.49c”),需要转义:"emule 0.49c"
大小选择器帮您根据文件大小选择文件。