当前位置: 首页 >> 欧美电影 >> 断电惊魂[中文字幕].The.Power.2021.1080p.FriDay.WEB-DL.H264.AAC 2.45GB >> 正文

断电惊魂[中文字幕].The.Power.2021.1080p.FriDay.WEB-DL.H264.AAC 2.45GB

2021年09月05日 19:17:35     电影发布:来源于网络     电影分类:欧美电影     评论(0)    

断电惊魂[中文字幕].The.Power.2021.1080p.FriDay.WEB DL.H264.AAC 2.45GB 恐怖片 惊悚片 欧美电影  第1张

◎译 名 断电惊魂 / 鬼护士(台) / 电源

◎片 名 The Power

◎年 代 2021

◎产 地 英国

◎类 别 惊悚 / 恐怖

◎语 言 英语

◎上映日期 2021-04-08(美国网络)

◎IMDb链接 https://www.imdb.com/title/tt9314984/

◎豆瓣评分 5.3/10 (770人评价)

◎豆瓣链接 https://movie.douban.com/subject/34919090/

◎片 长 92分钟

◎演 员 罗斯·威廉姆斯 Rose Williams (id:1353077)

查理·卡里克 Charlie Carrick (id:1276114)

西奥·巴克利姆-比格斯 Theo Barklem-Biggs (id:1319679)

克拉拉·里德 Clara Read (id:1406208)

Marley Chesham Marley Chesham (id:1455142)

吉米索拉·艾库美罗 Gbemisola Ikumelo (id:1455146)

夏奇拉·拉曼 Shakira Rahman (id:1455255)

努拉·麦高恩 Nuala McGowan (id:1455256)

◎标 签 恐怖 / 惊悚 / 英国 / 2021 / 女性 / 剧情 / 悬疑 / 线上

◎简 介

伦敦-1973年漫长而艰难的冬天。矿工罢工导致整个英国停电,整个国家陷入一片漆黑。 女主Val是个年轻护士,被迫在一家破败的医院做夜班。是夜,瓦尔身处一处空旷破败建筑物,周围笼罩着险恶的黑暗。她发现这些城墙中隐藏着一个致命的秘密和一个可怕的存在。

  1. ##### MediaInfo ######

  2. General

  3. Unique ID : 19993756909411065595817306259374277003 (0xF0AA852CA0AF985971D4C0645C1018B)

  4. Complete name : The.Power.2021.1080p.FriDay.WEB-DL.H264.AAC-10001@BBQDDQ.COM.mkv

  5. Format : Matroska

  6. Format version : Version 4

  7. File size : 2.45 GiB

  8. Duration : 1 h 32 min

  9. Overall bit rate : 3 784 kb/s

  10. Encoded date : UTC 2021-08-02 12:10:44

  11. Writing application : mkvmerge v56.1.0 ('My Friend') 64-bit

  12. Writing library : libebml v1.4.2 + libmatroska v1.6.4


  13. Video

  14. ID : 1

  15. Format : AVC

  16. Format/Info : Advanced Video Codec

  17. Format profile : High@L4.1

  18. Format settings : CABAC / 1 Ref Frames

  19. Format settings, CABAC : Yes

  20. Format settings, Reference frames : 1 frame

  21. Format settings, GOP : M=1, N=60

  22. Codec ID : V_MPEG4/ISO/AVC

  23. Duration : 1 h 32 min

  24. Bit rate mode : Constant

  25. Bit rate : 3 656 kb/s

  26. Nominal bit rate : 4 000 kb/s

  27. Width : 1 920 pixels

  28. Height : 1 080 pixels

  29. Display aspect ratio : 16:9

  30. Frame rate mode : Constant

  31. Frame rate : 29.970 (30000/1001/53354) FPS

  32. Color space : YUV

  33. Chroma subsampling : 4:2:0

  34. Bit depth : 8 bits

  35. Scan type : Progressive

  36. Bits/(Pixel*Frame) : 0.059

  37. Stream size : 2.36 GiB (97%)

  38. Language : English

  39. Default : Yes

  40. Forced : No


  41. Audio

  42. ID : 2

  43. Format : AAC LC

  44. Format/Info : Advanced Audio Codec Low Complexity

  45. Codec ID : A_AAC-2

  46. Duration : 1 h 32 min

  47. Bit rate : 125 kb/s

  48. Channel(s) : 2 channels

  49. Channel layout : L R

  50. Sampling rate : 48.0 kHz

  51. Frame rate : 46.875 FPS (1024 SPF)

  52. Compression mode : Lossy

  53. Stream size : 83.0 MiB (3%)

  54. Language : English

  55. Default : Yes

  56. Forced : No


  57. Text #1

  58. ID : 3

  59. Format : UTF-8

  60. Codec ID : S_TEXT/UTF8

  61. Codec ID/Info : UTF-8 Plain Text

  62. Duration : 1 h 26 min

  63. Bit rate : 31 b/s

  64. Count of elements : 781

  65. Stream size : 19.8 KiB (0%)

  66. Title : Chinese Simplified

  67. Language : Chinese

  68. Default : Yes

  69. Forced : No


  70. Text #2

  71. ID : 4

  72. Format : UTF-8

  73. Codec ID : S_TEXT/UTF8

  74. Codec ID/Info : UTF-8 Plain Text

  75. Duration : 1 h 26 min

  76. Bit rate : 31 b/s

  77. Count of elements : 781

  78. Stream size : 19.8 KiB (0%)

  79. Title : Chinese Traditional

  80. Language : Chinese

  81. Default : No

  82. Forced : No


文件下载


除非特别注明,本文『断电惊魂[中文字幕].The.Power.2021.1080p.FriDay.WEB-DL.H264.AAC 2.45GB』来源于互联网机器人自动抓取,非本站原创。 浮游电影网不对本文拥有版权,如有侵犯,请联系邮箱:fuyouu#yandex.com[#换成@]投诉。我们会在15个工作日内删除。 但烦请转载时请标明出处:“本文转载于『浮游电影网』,原文地址:https://www.fuyouu.com/14201.html

评论吧骚年!

发表你的见解   

昵称*

E-mail*(建议输入,以便收到博主回复的提示邮件)

验证码*

您可以使用eMule或eMule Mod(Windows)、aMule(Win、Linux、Mac)等软件下载eD2k链接。。
eMule收藏集(.emulecollection)文件是您选中的所有链接的列表文件。eMule可以直接下载它们。
按住SHIFT键选择可以选中多个选择框。
可用文件名和大小选择器来选择文件。
文件名选择器帮您根据文件名称或后缀来选择文件。不分大小写。
符号使用:
和:空格( )、+
不包含:-
或:|
转义:一对英文引号("");
匹配开头:^
匹配结尾:$
例如:
选中所有名称中包含有“eMule”或“0.49c”字眼,但不包含有“exe”字眼的:emule|0.49c -exe
选中所有名称的开头是“eMule”,结尾是“0.49c”的:^emule 0.49c$
选中所有名称中带有“eMule 0.49c”的(必须是“eMule 0.49c”,中间没有别的字符,不能是“eMule fake 0.49c”),需要转义:"emule 0.49c"
大小选择器帮您根据文件大小选择文件。