当前位置: 首页 >> 欧美电影 >> 入侵者[中文字幕].The.Intruders.2015.1080p.BluRay.x265.10bit.DD5.1.MNHD 5.12GB >> 正文

入侵者[中文字幕].The.Intruders.2015.1080p.BluRay.x265.10bit.DD5.1.MNHD 5.12GB

2021年09月05日 19:16:21     电影发布:来源于网络     电影分类:欧美电影     评论(0)    

入侵者[中文字幕].The.Intruders.2015.1080p.BluRay.x265.10bit.DD5.1.MNHD 5.12GB 恐怖片 惊悚片 剧情片 欧美电影  第1张

◎译 名 入侵者 / Intruders / Deadly Home

◎片 名 Shut In

◎年 代 2015

◎产 地 美国

◎类 别 剧情 / 惊悚 / 恐怖

◎语 言 英语

◎上映日期 2016-01-15(美国)

◎IMDb链接 https://www.imdb.com/title/tt4009278/

◎豆瓣评分 5.6/10 (1627人评价)

◎豆瓣链接 https://movie.douban.com/subject/26253609/

◎片 长 90分钟

◎导 演 亚当·辛德勒 Adam Schindler (id:1355625)

◎编 剧 T.J. 希玛菲尔 T.J. Cimfel (id:1355626)

大卫·怀特 David White (id:1355627)

◎演 员 马丁·斯塔尔 Martin Starr (id:1022628)

贝丝·涅斯格拉夫 Beth Riesgraf (id:1049544)

罗瑞·卡尔金 Rory Culkin (id:1009278)

杰克·凯西 Jack Kesy (id:1326422)

莱蒂西亚·吉门尼斯 Leticia Jimenez (id:1355628)

约书亚·米克尔 Joshua Mikel (id:1355629)

蒂莫西·T·麦金尼 Timothy T. McKinney (id:1355630)

查理·希顿 Charlie Heaton (id:1360138)

◎标 签 惊悚 / 美国 / 犯罪 / 悬疑 / 恐怖 / 剧情 / 2015 / 人性

◎简 介

远离城市喧嚣的一处住宅里,成年女子安娜·卢克(贝丝·涅斯格拉夫 Beth Riesgraf 饰)和哥哥科纳德(Timothy T. McKinney 饰)。哥哥身患重病,去日无多,他担心妹妹的将来,却无力回天。某个夜晚,科纳德在沉睡中睡去,世上只留安娜一人。因童年的一段经历,安娜患有旷野恐惧症,从而不愿走出家门。在哥哥葬礼当天,独自留在家里的安娜兀自沉浸在悲伤之中。而就在此时,三名陌生男子闯进了她的房子。安娜东躲西藏,好不容易抓住机会可以逃出去,却在临近门口的一刻无法跨越心底的恐惧,最终束手就擒。

三个男人为钱而来,他们丝毫没预料到安娜会因恐惧症缺席葬礼而留在家中。这名弱女子,只有瞅准时机保护她最后的领地……

  1. ##### MediaInfo ######

  2. General

  3. Unique ID : 131913511626731865523640669436695843277 (0x633D9E43157D00B1217941FB4FA091CD)

  4. Complete name : The.Intruders.2015.1080p.BluRay.x265.10bit.DD5.1.MNHD-10018@BBQDDQ.COM.mkv

  5. Format : Matroska

  6. Format version : Version 4

  7. File size : 5.12 GiB

  8. Duration : 1 h 30 min

  9. Overall bit rate : 8 113 kb/s

  10. Movie name : The Intruders 2015 1080p BluRay x265 10bit DD5.1 MNHD-10018@BBQDDQ.COM

  11. Encoded date : UTC 2021-09-03 22:53:02

  12. Writing application : mkvmerge v53.0.0 ('Fool's Gold') 64-bit

  13. Writing library : libebml v1.4.1 + libmatroska v1.6.2


  14. Video

  15. ID : 1

  16. Format : HEVC

  17. Format/Info : High Efficiency Video Coding

  18. Format profile : Main 10@L5.1@High

  19. Codec ID : V_MPEGH/ISO/HEVC

  20. Duration : 1 h 30 min

  21. Bit rate : 7 421 kb/s

  22. Width : 1 920 pixels

  23. Height : 804 pixels

  24. Display aspect ratio : 2.40:1

  25. Frame rate mode : Constant

  26. Frame rate : 24.000 FPS

  27. Color space : YUV

  28. Chroma subsampling : 4:2:0

  29. Bit depth : 10 bits

  30. Bits/(Pixel*Frame) : 0.200

  31. Stream size : 4.68 GiB (91%)

  32. Writing library : x265 3.5+1-f0c1022b6:[Linux][GCC 9.3.0][64 bit] 10bit

  33. Encoding settings : cpuid=533541111039 / frame-threads=3 / numa-pools=11 / wpp / pmode / no-pme / no-psnr / no-ssim / log-level=2 / input-csp=1 / input-res=1920x804 / interlace=0 / total-frames=130066 / level-idc=0 / high-tier=1 / uhd-bd=0 / ref=4 / no-allow-non-conformance / no-repeat-headers / annexb / no-aud / no-hrd / info / hash=0 / no-temporal-layers / no-open-gop / min-keyint=1 / keyint=250 / gop-lookahead=0 / bframes=6 / b-adapt=2 / b-pyramid / bframe-bias=0 / rc-lookahead=80 / lookahead-slices=0 / NTMzNTQ=uuDQuD2mJt9fsCf / scenecut=40 / hist-scenecut=0 / radl=0 / no-splice / no-intra-refresh / ctu=32 / min-cu-size=8 / no-rect / no-amp / max-tu-size=32 / tu-inter-depth=4 / tu-intra-depth=4 / limit-tu=0 / rdoq-level=2 / dynamic-rd=0.00 / no-ssim-rd / signhide / no-tskip / nr-intra=0 / nr-inter=0 / no-constrained-intra / strong-intra-smoothing / max-merge=5 / limit-refs=0 / no-limit-modes / me=3 / subme=7 / merange=57 / temporal-mvp / no-frame-dup / no-hme / weightp / weightb / no-analyze-src-pics / deblock=-3:-3 / no-sao / no-sao-non-deblock / rd=4 / selective-sao=0 / no-early-skip / no-rskip / no-fast-intra / no-tskip-fast / no-cu-lossless / b-intra / no-splitrd-skip / rdpenalty=0 / psy-rd=1.50 / psy-rdoq=1.00 / no-rd-refine / no-lossless / cbqpoffs=-2 / crqpoffs=-2 / rc=crf / crf=19.5 / qcomp=0.65 / qpstep=4 / stats-write=0 / stats-read=0 / vbv-maxrate=160000 / vbv-bufsize=160000 / vbv-init=0.9 / min-vbv-fullness=50.0 / max-vbv-fullness=80.0 / crf-max=0.0 / crf-min=0.0 / ipratio=1.30 / pbratio=1.20 / aq-mode=1 / aq-strength=1.00 / no-cutree / zone-count=0 / no-strict-cbr / qg-size=8 / no-rc-grain / qpmax=69 / qpmin=0 / no-const-vbv / sar=0 / overscan=0 / videoformat=5 / range=0 / colorprim=1 / transfer=1 / colormatrix=1 / chromaloc=0 / display-window=0 / cll=0,0 / min-luma=0 / max-luma=1023 / log2-max-poc-lsb=8 / vui-timing-info / vui-hrd-info / slices=1 / no-opt-qp-pps / no-opt-ref-list-length-pps / no-multi-pass-opt-rps / scenecut-bias=0.05 / hist-threshold=0.03 / no-opt-cu-delta-qp / no-aq-motion / no-hdr10 / no-hdr10-opt / no-dhdr10-opt / no-idr-recovery-sei / analysis-reuse-level=0 / analysis-save-reuse-level=0 / analysis-load-reuse-level=0 / scale-factor=0 / refine-intra=0 / refine-inter=0 / refine-mv=1 / refine-ctu-distortion=0 / no-limit-sao / ctu-info=0 / no-lowpass-dct / refine-analysis-type=0 / copy-pic=1 / max-ausize-factor=1.0 / no-dynamic-refine / no-single-sei / no-hevc-aq / no-svt / no-field / qp-adaptation-range=1.00 / scenecut-aware-qp=0conformance-window-offsets / right=0 / bottom=0 / NTMzNTQ= / decoder-max-rate=0 / no-vbv-live-multi-pass

  34. Default : Yes

  35. Forced : No

  36. Color range : Limited

  37. Color primaries : BT.709

  38. Transfer characteristics : BT.709

  39. Matrix coefficients : BT.709


  40. Audio

  41. ID : 2

  42. Format : AC-3

  43. Format/Info : Audio Coding 3

  44. Commercial name : Dolby Digital

  45. Codec ID : A_AC3

  46. Duration : 1 h 30 min

  47. Bit rate mode : Constant

  48. Bit rate : 640 kb/s

  49. Channel(s) : 6 channels

  50. Channel layout : L R C LFE Ls Rs

  51. Sampling rate : 48.0 kHz

  52. Frame rate : 31.250 FPS (1536 SPF)

  53. Compression mode : Lossy

  54. Stream size : 413 MiB (8%)

  55. Language : English

  56. Service kind : Complete Main

  57. Default : Yes

  58. Forced : No


  59. Text #1

  60. ID : 3

  61. Format : PGS

  62. Muxing mode : zlib

  63. Codec ID : S_HDMV/PGS

  64. Codec ID/Info : Picture based subtitle format used on BDs/HD-DVDs

  65. Duration : 1 h 16 min

  66. Bit rate : 28.3 kb/s

  67. Count of elements : 1410

  68. Stream size : 15.4 MiB (0%)

  69. Title : ChsEng

  70. Language : Chinese

  71. Default : Yes

  72. Forced : No


  73. Text #2

  74. ID : 4

  75. Format : PGS

  76. Muxing mode : zlib

  77. Codec ID : S_HDMV/PGS

  78. Codec ID/Info : Picture based subtitle format used on BDs/HD-DVDs

  79. Duration : 1 h 16 min

  80. Bit rate : 28.8 kb/s

  81. Count of elements : 1410

  82. Stream size : 15.7 MiB (0%)

  83. Title : ChtEng

  84. Language : Chinese

  85. Default : No

  86. Forced : No


  87. Text #3

  88. ID : 5

  89. Format : PGS

  90. Muxing mode : zlib

  91. Codec ID : S_HDMV/PGS

  92. Codec ID/Info : Picture based subtitle format used on BDs/HD-DVDs

  93. Duration : 1 h 16 min

  94. Bit rate : 17.5 kb/s

  95. Count of elements : 1596

  96. Stream size : 9.54 MiB (0%)

  97. Title : Chs

  98. Language : Chinese

  99. Default : No

  100. Forced : No


  101. Text #4

  102. ID : 6

  103. Format : PGS

  104. Muxing mode : zlib

  105. Codec ID : S_HDMV/PGS

  106. Codec ID/Info : Picture based subtitle format used on BDs/HD-DVDs

  107. Duration : 1 h 16 min

  108. Bit rate : 18.4 kb/s

  109. Count of elements : 1596

  110. Stream size : 9.99 MiB (0%)

  111. Title : Cht

  112. Language : Chinese

  113. Default : No

  114. Forced : No


  115. Text #5

  116. ID : 7

  117. Format : PGS

  118. Muxing mode : zlib

  119. Codec ID : S_HDMV/PGS

  120. Codec ID/Info : Picture based subtitle format used on BDs/HD-DVDs

  121. Duration : 1 h 16 min

  122. Bit rate : 18.4 kb/s

  123. Count of elements : 1410

  124. Stream size : 10.0 MiB (0%)

  125. Title : en

  126. Language : English

  127. Default : No

  128. Forced : No


  129. Menu

  130. 00:00:00.000 : en:Chapter 01

  131. 00:07:11.917 : en:Chapter 02

  132. 00:12:20.792 : en:Chapter 03

  133. 00:20:52.458 : en:Chapter 04

  134. 00:27:26.417 : en:Chapter 05

  135. 00:36:16.208 : en:Chapter 06

  136. 00:42:08.333 : en:Chapter 07

  137. 00:53:46.583 : en:Chapter 08

  138. 01:01:26.583 : en:Chapter 09

  139. 01:09:27.292 : en:Chapter 10

  140. 01:18:16.833 : en:Chapter 11

  141. 01:22:31.833 : en:Chapter 12

文件下载


除非特别注明,本文『入侵者[中文字幕].The.Intruders.2015.1080p.BluRay.x265.10bit.DD5.1.MNHD 5.12GB』来源于互联网机器人自动抓取,非本站原创。 浮游电影网不对本文拥有版权,如有侵犯,请联系邮箱:fuyouu#yandex.com[#换成@]投诉。我们会在15个工作日内删除。 但烦请转载时请标明出处:“本文转载于『浮游电影网』,原文地址:https://www.fuyouu.com/14200.html

评论吧骚年!

发表你的见解   

昵称*

E-mail*(建议输入,以便收到博主回复的提示邮件)

验证码*

您可以使用eMule或eMule Mod(Windows)、aMule(Win、Linux、Mac)等软件下载eD2k链接。。
eMule收藏集(.emulecollection)文件是您选中的所有链接的列表文件。eMule可以直接下载它们。
按住SHIFT键选择可以选中多个选择框。
可用文件名和大小选择器来选择文件。
文件名选择器帮您根据文件名称或后缀来选择文件。不分大小写。
符号使用:
和:空格( )、+
不包含:-
或:|
转义:一对英文引号("");
匹配开头:^
匹配结尾:$
例如:
选中所有名称中包含有“eMule”或“0.49c”字眼,但不包含有“exe”字眼的:emule|0.49c -exe
选中所有名称的开头是“eMule”,结尾是“0.49c”的:^emule 0.49c$
选中所有名称中带有“eMule 0.49c”的(必须是“eMule 0.49c”,中间没有别的字符,不能是“eMule fake 0.49c”),需要转义:"emule 0.49c"
大小选择器帮您根据文件大小选择文件。