当前位置: 首页 >> 海外电影 >> 祖与占[中文字幕].Jules.and.Jim.1962.1080p.FriDay.WEB-DL.H264.AAC 2.86GB >> 正文

祖与占[中文字幕].Jules.and.Jim.1962.1080p.FriDay.WEB-DL.H264.AAC 2.86GB

2021年09月05日 19:15:05     电影发布:来源于网络     电影分类:海外电影     评论(0)    

祖与占[中文字幕].Jules.and.Jim.1962.1080p.FriDay.WEB DL.H264.AAC 2.86GB 爱情片 剧情片 海外电影  第1张

◎译 名 祖与占 / 朱尔与吉姆 / 朱尔和吉姆 / 夏日之恋(台) / Jules and Jim

◎片 名 Jules et Jim

◎年 代 1962

◎产 地 法国

◎类 别 剧情 / 爱情

◎语 言 法语 / 德语 / 英语

◎上映日期 1962-01-23(法国)

◎IMDb链接 https://www.imdb.com/title/tt0055032/

◎豆瓣评分 8.4/10 (38670人评价)

◎豆瓣链接 https://movie.douban.com/subject/1292338/

◎片 长 105分钟

◎导 演 弗朗索瓦·特吕弗 Fran?ois Truffaut (id:1054852)

◎编 剧 弗朗索瓦·特吕弗 Fran?ois Truffaut (id:1054852)

让·格吕约尔 Jean Gruault (id:1025645)

昂利-皮埃尔·罗歇 Henri-Pierre Roché (id:1020168)

◎演 员 让娜·莫罗 Jeanne Moreau (id:1007066)

奥斯卡·威内尔 Oskar Werner (id:1040767)

亨利·赛尔 Henri Serre (id:1032961)

万娜·乌尔比诺 Vanna Urbino (id:1149285)

阿妮·内尔森 Anny Nelsen (id:1135662)

萨比娜·奥德潘 Sabine Haudepin (id:1095422)

玛丽·杜布瓦 Marie Dubois (id:1016809)

米歇尔·索博 Michel Subor (id:1005803)

弗朗索瓦·朵列 Fran?oise Dorléac (id:1000501)

弗朗索瓦·特吕弗 Fran?ois Truffaut (id:1054852)

乔治·德勒吕 Georges Delerue (id:1054306)

◎标 签 法国 / 新浪潮 / 特吕弗 / 爱情 / 法国电影 / 弗朗索瓦·特吕弗 / 1962 / FrancoisTruffaut

◎简 介

一战前,德国人祖(奥斯卡·威内尔 Oskar Werner 饰)和法国人占(亨利·赛尔 Henri Serre饰)在巴黎结识。他们意趣相投,对诗歌和小说都有强烈而共同的兴趣,甚至二人为着同一个雕塑也着迷。顺理成章地,祖与占都爱上了同一个女子:聪明貌美的凯瑟琳(让娜·莫罗 Jeanne Moreau饰)。

在这样的关系中,占选择了成全温柔单纯的祖。他们一起到乡间度假,度过了美妙时光。然而一战的爆发,却让他们失去了联系,在自己国家服役期间,他们多么担心会在战场上杀死自己的好友。而祖,从不间断地给妻子凯瑟琳写信。

战争结束,祖与占再次相遇,占觉察到祖和凯瑟琳的关系很糟糕——她对婚姻以外的感情从没停止过追逐,喜欢在各种爱情关系中享受自由。占在祖家中住下,凯瑟琳毫不掩饰对占的爱,这段三角关系平衡而快乐的维系着,旁人完全看不透。当占要离去时,凯瑟琳直率锐利的性格...

  1. ##### MediaInfo ######

  2. General

  3. Unique ID : 135941031002809783803942557072681719967 (0x66454A4C607A52AEECB8285F3CC5D89F)

  4. Complete name : Jules.and.Jim.1962.1080p.FriDay.WEB-DL.H264.AAC-10001@BBQDDQ.COM.mkv

  5. Format : Matroska

  6. Format version : Version 4

  7. File size : 2.85 GiB

  8. Duration : 1 h 45 min

  9. Overall bit rate : 3 858 kb/s

  10. Encoded date : UTC 2021-09-04 09:56:09

  11. Writing application : mkvmerge v56.1.0 ('My Friend') 64-bit

  12. Writing library : libebml v1.4.2 + libmatroska v1.6.4


  13. Video

  14. ID : 1

  15. Format : AVC

  16. Format/Info : Advanced Video Codec

  17. Format profile : High@L4.1

  18. Format settings : CABAC / 1 Ref Frames

  19. Format settings, CABAC : Yes

  20. Format settings, Reference frames : 1 frame

  21. Format settings, GOP : M=1, N=60

  22. Codec ID : V_MPEG4/ISO/AVC

  23. Duration : 1 h 45 min

  24. Bit rate mode : Constant

  25. Bit rate : 3 730 kb/s

  26. Nominal bit rate : 4 000 kb/s

  27. Width : 1 920 pixels

  28. Height : 1 080 pixels

  29. Display aspect ratio : 16:9

  30. Frame rate mode : Constant

  31. Frame rate : 29.970 (30000/1001/53354) FPS

  32. Color space : YUV

  33. Chroma subsampling : 4:2:0

  34. Bit depth : 8 bits

  35. Scan type : Progressive

  36. Bits/(Pixel*Frame) : 0.060

  37. Stream size : 2.76 GiB (97%)

  38. Language : English

  39. Default : Yes

  40. Forced : No


  41. Audio

  42. ID : 2

  43. Format : AAC LC

  44. Format/Info : Advanced Audio Codec Low Complexity

  45. Codec ID : A_AAC-2

  46. Duration : 1 h 45 min

  47. Bit rate : 125 kb/s

  48. Channel(s) : 2 channels

  49. Channel layout : L R

  50. Sampling rate : 48.0 kHz

  51. Frame rate : 46.875 FPS (1024 SPF)

  52. Compression mode : Lossy

  53. Stream size : 95.0 MiB (3%)

  54. Title : French

  55. Language : French

  56. Default : Yes

  57. Forced : No


  58. Text #1

  59. ID : 3

  60. Format : UTF-8

  61. Codec ID : S_TEXT/UTF8

  62. Codec ID/Info : UTF-8 Plain Text

  63. Duration : 1 h 45 min

  64. Bit rate : 50 b/s

  65. Count of elements : 1360

  66. Stream size : 39.3 KiB (0%)

  67. Title : Chinese Simplified

  68. Language : Chinese

  69. Default : Yes

  70. Forced : No


  71. Text #2

  72. ID : 4

  73. Format : UTF-8

  74. Codec ID : S_TEXT/UTF8

  75. Codec ID/Info : UTF-8 Plain Text

  76. Duration : 1 h 45 min

  77. Bit rate : 50 b/s

  78. Count of elements : 1360

  79. Stream size : 39.3 KiB (0%)

  80. Title : Chinese Traditional

  81. Language : Chinese

  82. Default : No

  83. Forced : No


文件下载


除非特别注明,本文『祖与占[中文字幕].Jules.and.Jim.1962.1080p.FriDay.WEB-DL.H264.AAC 2.86GB』来源于互联网机器人自动抓取,非本站原创。 浮游电影网不对本文拥有版权,如有侵犯,请联系邮箱:fuyouu#yandex.com[#换成@]投诉。我们会在15个工作日内删除。 但烦请转载时请标明出处:“本文转载于『浮游电影网』,原文地址:https://www.fuyouu.com/14199.html

评论吧骚年!

发表你的见解   

昵称*

E-mail*(建议输入,以便收到博主回复的提示邮件)

验证码*

您可以使用eMule或eMule Mod(Windows)、aMule(Win、Linux、Mac)等软件下载eD2k链接。。
eMule收藏集(.emulecollection)文件是您选中的所有链接的列表文件。eMule可以直接下载它们。
按住SHIFT键选择可以选中多个选择框。
可用文件名和大小选择器来选择文件。
文件名选择器帮您根据文件名称或后缀来选择文件。不分大小写。
符号使用:
和:空格( )、+
不包含:-
或:|
转义:一对英文引号("");
匹配开头:^
匹配结尾:$
例如:
选中所有名称中包含有“eMule”或“0.49c”字眼,但不包含有“exe”字眼的:emule|0.49c -exe
选中所有名称的开头是“eMule”,结尾是“0.49c”的:^emule 0.49c$
选中所有名称中带有“eMule 0.49c”的(必须是“eMule 0.49c”,中间没有别的字符,不能是“eMule fake 0.49c”),需要转义:"emule 0.49c"
大小选择器帮您根据文件大小选择文件。