当前位置: 首页 >> 欧美电影 >> 打鬼王[中文字幕].Bubba.Ho-Tep.2002.1080p.BluRay.x265.10bit.DD5.1.MNHD 5.36GB >> 正文

打鬼王[中文字幕].Bubba.Ho-Tep.2002.1080p.BluRay.x265.10bit.DD5.1.MNHD 5.36GB

2021年09月05日 19:13:44     电影发布:来源于网络     电影分类:欧美电影     评论(0)    

打鬼王[中文字幕].Bubba.Ho Tep.2002.1080p.BluRay.x265.10bit.DD5.1.MNHD 5.36GB 悬疑片 恐怖片 奇幻片 喜剧片 欧美电影  第1张

◎译 名 打鬼王

◎片 名 Bubba Ho-tep

◎年 代 2002

◎产 地 美国

◎类 别 喜剧 / 悬疑 / 恐怖 / 奇幻

◎语 言 英语 / 德语

◎上映日期 2002-06-09

◎IMDb链接 https://www.imdb.com/title/tt0281686/

◎豆瓣评分 6.4/10 (577人评价)

◎豆瓣链接 https://movie.douban.com/subject/1309094/

◎片 长 92 分钟

◎导 演 唐·柯斯卡莱利 Don Coscarelli (id:1004916)

◎编 剧 唐·柯斯卡莱利 Don Coscarelli (id:1004916)

乔·R·兰斯代尔 Joe R. Lansdale (id:1041699)

◎演 员 布鲁斯·坎贝尔 Bruce Campbell (id:1069816)

奥西·戴维斯 Ossie Davis (id:1036602)

艾拉·乔伊斯 Ella Joyce (id:1103527)

海蒂玛哈特 Heidi Marnhout (id:1348682)

Naveed Mahboobian Naveed Mahboobian (id:1208737)

Gabi Ferrer Gabi Ferrer (id:1205381)

蒂莫西 E.古德温 Timothy E. Goodwin (id:1182703)

安德烈·索格利扎索 André Sogliuzzo (id:1158855)

拉里·彭内尔 Larry Pennell (id:1134696)

雷吉·班尼斯特 Reggie Bannister (id:1027536)

丹尼尔·洛巴克 Daniel Roebuck (id:1032119)

哈里逊·杨 Harrison Young (id:1032575)

唐·柯斯卡莱利 Don Coscarelli (id:1004916)

布莱恩·泰勒 Brian Tyler (id:1276412)

Scott J. Gill Scott J. Gill (id:1284868)

Justin Zaharczuk Justin Zaharczuk (id:1012045)

罗伯特库兹曼 Robert Kurtzman (id:1036962)

大卫·哈特曼 David Hartman (id:1286178)

Geoffrey Mark Geoffrey Mark (id:1035171)

◎标 签 喜剧 / 美国 / 恐怖 / CULT / 2002 / 恶搞 / 美国电影 / 惊悚

◎简 介

故事发生在位于德克萨斯州的一年老人院里。艾维斯(布鲁斯·坎贝尔 Bruce Campbell 饰)约翰(奥西·戴维斯 Ossie Davis 饰)是生活在那里的两位老人,实际上,艾维斯一直认为自己是著名的摇滚巨星猫王,而约翰则坚信自己是美国曾经的著名总统肯尼迪,并没有人来戳穿两个老人可悲的幻想。

一个来自古埃及的可怕魔鬼现身了,每天夜里,他会选中一些可怜人作为目标,吸走他们的灵魂。艾维斯和约翰决定发挥最后的光和热,绝不让魔鬼继续为非作歹。但很快的,两人便发现,魔鬼酝酿着一个更大的阴谋,它企图用人类的灵魂来复活一支古埃及军队,再率领着这支军队征服人界。

  1. ##### MediaInfo ######

  2. General

  3. Unique ID : 326440413065437890013999360528609423727 (0xF59622FC063C4AE356A715B693A3B16F)

  4. Complete name : Bubba.Ho-Tep.2002.1080p.BluRay.x265.10bit.DD5.1.MNHD-10018@BBQDDQ.COM.mkv

  5. Format : Matroska

  6. Format version : Version 4

  7. File size : 5.36 GiB

  8. Duration : 1 h 32 min

  9. Overall bit rate : 8 309 kb/s

  10. Movie name : Bubba Ho Tep 2002 1080p BluRay x265 10bit DD5.1 MNHD FRDS

  11. Encoded date : UTC 2021-09-04 12:17:11

  12. Writing application : mkvmerge v53.0.0 ('Fool's Gold') 64-bit

  13. Writing library : libebml v1.4.1 + libmatroska v1.6.2


  14. Video

  15. ID : 1

  16. Format : HEVC

  17. Format/Info : High Efficiency Video Coding

  18. Format profile : Main 10@L5.1@High

  19. Codec ID : V_MPEGH/ISO/HEVC

  20. Duration : 1 h 32 min

  21. Bit rate : 7 667 kb/s

  22. Width : 1 920 pixels

  23. Height : 1 040 pixels

  24. Display aspect ratio : 1.85:1

  25. Frame rate mode : Constant

  26. Frame rate : 23.976 (24000/1001/53354) FPS

  27. Color space : YUV

  28. Chroma subsampling : 4:2:0

  29. Bit depth : 10 bits

  30. Bits/(Pixel*Frame) : 0.160

  31. Stream size : 4.94 GiB (92%)

  32. Writing library : x265 3.5+1-f0c1022b6:[Linux][GCC 9.3.0][64 bit] 10bit

  33. Encoding settings : cpuid=533541111039 / frame-threads=3 / numa-pools=11 / wpp / pmode / no-pme / no-psnr / no-ssim / log-level=2 / input-csp=1 / input-res=1920x1040 / interlace=0 / total-frames=132824 / level-idc=0 / high-tier=1 / uhd-bd=0 / ref=4 / no-allow-non-conformance / no-repeat-headers / annexb / no-aud / no-hrd / info / hash=0 / no-temporal-layers / no-open-gop / min-keyint=1 / keyint=250 / gop-lookahead=0 / bframes=6 / b-adapt=2 / b-pyramid / bframe-bias=0 / rc-lookahead=80 / lookahead-slices=0 / NTMzNTQ=uuDQuD2mJt9fsCf / scenecut=40 / hist-scenecut=0 / radl=0 / no-splice / no-intra-refresh / ctu=32 / min-cu-size=8 / no-rect / no-amp / max-tu-size=32 / tu-inter-depth=4 / tu-intra-depth=4 / limit-tu=0 / rdoq-level=2 / dynamic-rd=0.00 / no-ssim-rd / signhide / no-tskip / nr-intra=0 / nr-inter=0 / no-constrained-intra / strong-intra-smoothing / max-merge=5 / limit-refs=0 / no-limit-modes / me=3 / subme=7 / merange=57 / temporal-mvp / no-frame-dup / no-hme / weightp / weightb / no-analyze-src-pics / deblock=-3:-3 / no-sao / no-sao-non-deblock / rd=4 / selective-sao=0 / no-early-skip / no-rskip / no-fast-intra / no-tskip-fast / no-cu-lossless / b-intra / no-splitrd-skip / rdpenalty=0 / psy-rd=1.50 / psy-rdoq=1.00 / no-rd-refine / no-lossless / cbqpoffs=-2 / crqpoffs=-2 / rc=crf / crf=22.0 / qcomp=0.65 / qpstep=4 / stats-write=0 / stats-read=0 / vbv-maxrate=160000 / vbv-bufsize=160000 / vbv-init=0.9 / min-vbv-fullness=50.0 / max-vbv-fullness=80.0 / crf-max=0.0 / crf-min=0.0 / ipratio=1.30 / pbratio=1.20 / aq-mode=1 / aq-strength=1.00 / no-cutree / zone-count=0 / no-strict-cbr / qg-size=8 / no-rc-grain / qpmax=69 / qpmin=0 / no-const-vbv / sar=0 / overscan=0 / videoformat=5 / range=0 / colorprim=1 / transfer=1 / colormatrix=1 / chromaloc=0 / display-window=0 / cll=0,0 / min-luma=0 / max-luma=1023 / log2-max-poc-lsb=8 / vui-timing-info / vui-hrd-info / slices=1 / no-opt-qp-pps / no-opt-ref-list-length-pps / no-multi-pass-opt-rps / scenecut-bias=0.05 / hist-threshold=0.03 / no-opt-cu-delta-qp / no-aq-motion / no-hdr10 / no-hdr10-opt / no-dhdr10-opt / no-idr-recovery-sei / analysis-reuse-level=0 / analysis-save-reuse-level=0 / analysis-load-reuse-level=0 / scale-factor=0 / refine-intra=0 / refine-inter=0 / refine-mv=1 / refine-ctu-distortion=0 / no-limit-sao / ctu-info=0 / no-lowpass-dct / refine-analysis-type=0 / copy-pic=1 / max-ausize-factor=1.0 / no-dynamic-refine / no-single-sei / no-hevc-aq / no-svt / no-field / qp-adaptation-range=1.00 / scenecut-aware-qp=0conformance-window-offsets / right=0 / bottom=0 / NTMzNTQ= / decoder-max-rate=0 / no-vbv-live-multi-pass

  34. Default : Yes

  35. Forced : No

  36. Color range : Limited

  37. Color primaries : BT.709

  38. Transfer characteristics : BT.709

  39. Matrix coefficients : BT.709


  40. Audio

  41. ID : 2

  42. Format : AC-3

  43. Format/Info : Audio Coding 3

  44. Commercial name : Dolby Digital

  45. Codec ID : A_AC3

  46. Duration : 1 h 32 min

  47. Bit rate mode : Constant

  48. Bit rate : 640 kb/s

  49. Channel(s) : 6 channels

  50. Channel layout : L R C LFE Ls Rs

  51. Sampling rate : 48.0 kHz

  52. Frame rate : 31.250 FPS (1536 SPF)

  53. Compression mode : Lossy

  54. Stream size : 423 MiB (8%)

  55. Language : English

  56. Service kind : Complete Main

  57. Default : Yes

  58. Forced : No


  59. Text #1

  60. ID : 3

  61. Format : UTF-8

  62. Codec ID : S_TEXT/UTF8

  63. Codec ID/Info : UTF-8 Plain Text

  64. Duration : 1 h 26 min

  65. Bit rate : 34 b/s

  66. Count of elements : 708

  67. Stream size : 21.8 KiB (0%)

  68. Title : Chs

  69. Language : Chinese

  70. Default : Yes

  71. Forced : No


  72. Text #2

  73. ID : 4

  74. Format : UTF-8

  75. Codec ID : S_TEXT/UTF8

  76. Codec ID/Info : UTF-8 Plain Text

  77. Duration : 1 h 26 min

  78. Bit rate : 34 b/s

  79. Count of elements : 708

  80. Stream size : 21.8 KiB (0%)

  81. Title : Cht

  82. Language : Chinese

  83. Default : No

  84. Forced : No


  85. Text #3

  86. ID : 5

  87. Format : UTF-8

  88. Codec ID : S_TEXT/UTF8

  89. Codec ID/Info : UTF-8 Plain Text

  90. Duration : 1 h 23 min

  91. Bit rate : 39 b/s

  92. Count of elements : 686

  93. Stream size : 24.3 KiB (0%)

  94. Title : Eng

  95. Language : English

  96. Default : No

  97. Forced : No


  98. Menu

  99. 00:00:00.000 : en:Chapter 01

  100. 00:05:58.817 : en:Chapter 02

  101. 00:15:14.831 : en:Chapter 03

  102. 00:23:03.465 : en:Chapter 04

  103. 00:29:28.976 : en:Chapter 05

  104. 00:36:25.642 : en:Chapter 06

  105. 00:43:17.053 : en:Chapter 07

  106. 00:49:17.997 : en:Chapter 08

  107. 00:54:55.167 : en:Chapter 09

  108. 01:02:10.060 : en:Chapter 10

  109. 01:12:29.303 : en:Chapter 11

  110. 01:24:55.632 : en:Chapter 12


文件下载


除非特别注明,本文『打鬼王[中文字幕].Bubba.Ho-Tep.2002.1080p.BluRay.x265.10bit.DD5.1.MNHD 5.36GB』来源于互联网机器人自动抓取,非本站原创。 浮游电影网不对本文拥有版权,如有侵犯,请联系邮箱:fuyouu#yandex.com[#换成@]投诉。我们会在15个工作日内删除。 但烦请转载时请标明出处:“本文转载于『浮游电影网』,原文地址:https://www.fuyouu.com/14198.html

评论吧骚年!

发表你的见解   

昵称*

E-mail*(建议输入,以便收到博主回复的提示邮件)

验证码*

您可以使用eMule或eMule Mod(Windows)、aMule(Win、Linux、Mac)等软件下载eD2k链接。。
eMule收藏集(.emulecollection)文件是您选中的所有链接的列表文件。eMule可以直接下载它们。
按住SHIFT键选择可以选中多个选择框。
可用文件名和大小选择器来选择文件。
文件名选择器帮您根据文件名称或后缀来选择文件。不分大小写。
符号使用:
和:空格( )、+
不包含:-
或:|
转义:一对英文引号("");
匹配开头:^
匹配结尾:$
例如:
选中所有名称中包含有“eMule”或“0.49c”字眼,但不包含有“exe”字眼的:emule|0.49c -exe
选中所有名称的开头是“eMule”,结尾是“0.49c”的:^emule 0.49c$
选中所有名称中带有“eMule 0.49c”的(必须是“eMule 0.49c”,中间没有别的字符,不能是“eMule fake 0.49c”),需要转义:"emule 0.49c"
大小选择器帮您根据文件大小选择文件。