当前位置: 首页 >> 欧美电影 >> 推手推车的男人[中文字幕].Man.Push.Cart.2005.1080p.BluRay.DTS.x265-10bit 8.16GB >> 正文

推手推车的男人[中文字幕].Man.Push.Cart.2005.1080p.BluRay.DTS.x265-10bit 8.16GB

2021年09月05日 19:12:45     电影发布:来源于网络     电影分类:欧美电影     评论(0)    

推手推车的男人[中文字幕].Man.Push.Cart.2005.1080p.BluRay.DTS.x265 10bit 8.16GB 剧情片 欧美电影  第1张

◎译 名 推手推车的男人 / 推小车的人

◎片 名 Man Push Cart

◎年 代 2005

◎产 地 美国

◎类 别 剧情

◎语 言 英语 / 乌尔都语

◎上映日期 2005-11-12

◎IMDb链接 https://www.imdb.com/title/tt0464105/

◎豆瓣评分 7.8/10 (997人评价)

◎豆瓣链接 https://movie.douban.com/subject/1849177/

◎片 长 USA: 87 分钟

◎导 演 拉敏·巴哈尼 Ramin Bahrani (id:1032195)

◎编 剧 拉敏·巴哈尼 Ramin Bahrani (id:1032195)

◎演 员 阿迈德·拉兹维 Ahmad Razvi (id:1309444)

拉蒂西亚·多瑞拉 Leticia Dolera (id:1027598)

Charles Daniel Sandoval Charles Daniel Sandoval (id:1192260)

Bill Lewis Bill Lewis (id:1289938)

班达埃尔比艾力维 Bandar Albuliwi (id:1014670)

Thomas Russo Thomas Russo (id:1171726)

Lisa Muskat Lisa Muskat (id:1292795)

Pradip Ghosh Pradip Ghosh (id:1309458)

Bedford T. Bentley Bedford T. Bentley (id:1309451)

拉敏·巴哈尼 Ramin Bahrani (id:1032195)

Brian Bell Brian Bell (id:1063346)

拉敏·巴哈尼 Ramin Bahrani (id:1032195)

◎标 签 美国 / 独立电影 / 美国电影 / 人生 / 孤独 / 社会 / 剧情 / 挣扎

◎简 介

在城市入睡的每个夜晚,巴基思坦移民Ahmad努力拖着他沉重的小车沿着纽约街道前往曼哈顿商业区的街角。每天早晨,从小车里取出咖啡和油炸圈饼卖给这个他不能够称之为属于自己的城市。他是那种可以在每个城市,每个街角都能看到的劳动者,他是个疑惑是否要一直逃避自己命运的人

  1. ##### MediaInfo ######

  2. General

  3. Unique ID : 316515003369760224440488341360082491098 (0xEE1E92813055E1912CA381A8D0B916DA)

  4. Complete name : Man.Push.Cart.2005.1080p.BluRay.DTS.x265-10bit-10007@BBQDDQ.COM.mkv

  5. Format : Matroska

  6. Format version : Version 4

  7. File size : 8.15 GiB

  8. Duration : 1 h 27 min

  9. Overall bit rate : 13.4 Mb/s

  10. Movie name : Man Push Cart 2005 1080p BluRay DTS x265-10bit-10007@BBQDDQ.COM

  11. Encoded date : UTC 2021-09-04 03:27:53

  12. Writing application : mkvmerge v38.0.0 ('The Silent Type') 64-bit

  13. Writing library : libebml v1.3.9 + libmatroska v1.5.2


  14. Video

  15. ID : 1

  16. Format : HEVC

  17. Format/Info : High Efficiency Video Coding

  18. Format profile : Main 10@L5.1@High

  19. Codec ID : V_MPEGH/ISO/HEVC

  20. Duration : 1 h 27 min

  21. Bit rate : 11.9 Mb/s

  22. Width : 1 920 pixels

  23. Height : 1 080 pixels

  24. Display aspect ratio : 16:9

  25. Frame rate mode : Constant

  26. Frame rate : 23.976 (24000/1001/53354) FPS

  27. Color space : YUV

  28. Chroma subsampling : 4:2:0

  29. Bit depth : 10 bits

  30. Bits/(Pixel*Frame) : 0.239

  31. Stream size : 7.22 GiB (89%)

  32. Title : @HDSky

  33. Writing library : x265 - H.265/HEVC codec

  34. Default : Yes

  35. Forced : No


  36. Audio

  37. ID : 2

  38. Format : DTS

  39. Format/Info : Digital Theater Systems

  40. Codec ID : A_DTS

  41. Duration : 1 h 27 min

  42. Bit rate mode : Constant

  43. Bit rate : 1 509 kb/s

  44. Channel(s) : 6 channels

  45. Channel layout : C L R Ls Rs LFE

  46. Sampling rate : 48.0 kHz

  47. Frame rate : 93.750 FPS (512 SPF)

  48. Bit depth : 24 bits

  49. Compression mode : Lossy

  50. Stream size : 941 MiB (11%)

  51. Title : English

  52. Language : English

  53. Default : Yes

  54. Forced : No


  55. Text #1

  56. ID : 3

  57. Format : PGS

  58. Muxing mode : zlib

  59. Codec ID : S_HDMV/PGS

  60. Codec ID/Info : Picture based subtitle format used on BDs/HD-DVDs

  61. Duration : 1 h 24 min

  62. Bit rate : 21.1 kb/s

  63. Count of elements : 839

  64. Stream size : 12.8 MiB (0%)

  65. Title : CHS

  66. Language : Chinese

  67. Default : Yes

  68. Forced : No


  69. Text #2

  70. ID : 4

  71. Format : PGS

  72. Muxing mode : zlib

  73. Codec ID : S_HDMV/PGS

  74. Codec ID/Info : Picture based subtitle format used on BDs/HD-DVDs

  75. Duration : 1 h 24 min

  76. Bit rate : 21.6 kb/s

  77. Count of elements : 839

  78. Stream size : 13.1 MiB (0%)

  79. Title : CHT

  80. Language : Chinese

  81. Default : No

  82. Forced : No


  83. Menu

  84. 00:00:00.000 : en:Chapter 01

  85. 00:08:12.117 : en:Chapter 02

  86. 00:16:14.182 : en:Chapter 03

  87. 00:26:25.000 : en:Chapter 04

  88. 00:32:20.605 : en:Chapter 05

  89. 00:40:06.446 : en:Chapter 06

  90. 00:44:41.095 : en:Chapter 07

  91. 00:47:22.715 : en:Chapter 08

  92. 00:54:46.867 : en:Chapter 09

  93. 01:03:39.607 : en:Chapter 10

  94. 01:09:51.479 : en:Chapter 11

  95. 01:19:56.125 : en:Chapter 12


文件下载


除非特别注明,本文『推手推车的男人[中文字幕].Man.Push.Cart.2005.1080p.BluRay.DTS.x265-10bit 8.16GB』来源于互联网机器人自动抓取,非本站原创。 浮游电影网不对本文拥有版权,如有侵犯,请联系邮箱:fuyouu#yandex.com[#换成@]投诉。我们会在15个工作日内删除。 但烦请转载时请标明出处:“本文转载于『浮游电影网』,原文地址:https://5.189.174.242/14197.html

评论吧骚年!

发表你的见解   

昵称*

E-mail*(建议输入,以便收到博主回复的提示邮件)

验证码*

您可以使用eMule或eMule Mod(Windows)、aMule(Win、Linux、Mac)等软件下载eD2k链接。。
eMule收藏集(.emulecollection)文件是您选中的所有链接的列表文件。eMule可以直接下载它们。
按住SHIFT键选择可以选中多个选择框。
可用文件名和大小选择器来选择文件。
文件名选择器帮您根据文件名称或后缀来选择文件。不分大小写。
符号使用:
和:空格( )、+
不包含:-
或:|
转义:一对英文引号("");
匹配开头:^
匹配结尾:$
例如:
选中所有名称中包含有“eMule”或“0.49c”字眼,但不包含有“exe”字眼的:emule|0.49c -exe
选中所有名称的开头是“eMule”,结尾是“0.49c”的:^emule 0.49c$
选中所有名称中带有“eMule 0.49c”的(必须是“eMule 0.49c”,中间没有别的字符,不能是“eMule fake 0.49c”),需要转义:"emule 0.49c"
大小选择器帮您根据文件大小选择文件。