当前位置: 首页 >> 港台电影 >> 表姐,你好嘢!3之大人驾到[国粤语配音/中文字幕].Her.Fatal.Ways.III.1992.1080p.BluRay.x265.10bit.FLAC.2.0.2Audio 6.82GB >> 正文

表姐,你好嘢!3之大人驾到[国粤语配音/中文字幕].Her.Fatal.Ways.III.1992.1080p.BluRay.x265.10bit.FLAC.2.0.2Audio 6.82GB

2021年09月05日 17:20:52     电影发布:来源于网络     电影分类:港台电影     评论(0)    

表姐,你好嘢!3之大人驾到[国粤语配音/中文字幕].Her.Fatal.Ways.III.1992.1080p.BluRay.x265.10bit.FLAC.2.0.2Audio 6.82GB 喜剧片 剧情片 港台电影  第1张

◎译 名 表姐,你好嘢!3之大人驾到 / Her Fatal Ways 3

◎年 代 1992

◎产 地 中国香港

◎类 别 剧情 / 喜剧

◎语 言 粤语

◎上映日期 1992-06-11(中国香港)

◎IMDb链接 https://www.imdb.com/title/tt0109262/

◎豆瓣评分 7.2/10 (2754人评价)

◎豆瓣链接 https://movie.douban.com/subject/1776806/

◎片 长 92分钟

◎导 演 张坚庭 Alfred Cheung (id:1016979)

◎编 剧 黄宏基 Keith Wong (id:1320279)

张坚庭 Alfred Cheung (id:1016979)

◎演 员 郑裕玲 Carol 'Do Do' Cheng (id:1070060)

陈松勇 Sung Young Chen (id:1275063)

张坚庭 Alfred Cheung (id:1016979)

黄秋生 Anthony Wong Chau-Sang (id:1050076)

乐韵 Wai Lok (id:1330950)

李名炀 Ming-yang Li (id:1289688)

吴国敬 Kwok-King Ng (id:1403519)

林迪安 Dion Lam (id:1289289)

简瑞超 Ruichao Jian (id:1327644)

张志德 Collin Cheung (id:1362563)

黄曼 Man Huang (id:1378983)

余纯 Shung Yu (id:1301561)

◎标 签 香港 / 喜剧 / 香港电影 / 郑裕玲 / 张坚庭 / 黄秋生 / 1992 / 政治

◎简 介

中央委员长千老要前往香港进行私人访问,郑大姐(郑裕玲 饰)和阿胜(张坚庭 饰)受命事先前往香港准备安全工作,岂料二人的飞机故障,最终停在了台湾机场,郑大姐对台湾方面的接待严阵以待,但一番相处下来,终与负责招待的台湾警察蒋大勇(陈松勇 饰)建立了初步信任。赶到香港的郑大姐在香港政治部督察吕sir(黄秋生 饰)的协助下,一丝不苟对来港拜会老情人的千老的每个到访场所进行了安全布置,期间她认真又别扭的做派让吕sir忍俊不禁。千老到来的前夕,蒋大勇赶到香港,向郑、吕二人透露了有杀手要袭击千老的情报,于是来自三地的三人要合力保障千老的安全……

  1. ##### MediaInfo ######

  2. General

  3. Unique ID : 96163271951511312633425033139015967087 (0x48585F5C2BC2833A0AED79B18514E16F)

  4. Complete name : Her.Fatal.Ways.III.1992.1080p.BluRay.x265.10bit.FLAC.2.0.2Audio-10017@BBQDDQ.COM.mkv

  5. Format : Matroska

  6. Format version : Version 4

  7. File size : 6.82 GiB

  8. Duration : 1 h 36 min

  9. Overall bit rate mode : Variable

  10. Overall bit rate : 10.1 Mb/s

  11. Encoded date : UTC 2021-09-04 04:05:42

  12. Writing application : mkvmerge v55.0.0 ('Waiting For Space') 64-bit

  13. Writing library : libebml v1.4.2 + libmatroska v1.6.4


  14. Video

  15. ID : 1

  16. Format : HEVC

  17. Format/Info : High Efficiency Video Coding

  18. Format profile : Main 10@L5@Main

  19. Codec ID : V_MPEGH/ISO/HEVC

  20. Duration : 1 h 36 min

  21. Bit rate : 9 442 kb/s

  22. Width : 1 920 pixels

  23. Height : 1 080 pixels

  24. Display aspect ratio : 16:9

  25. Frame rate mode : Constant

  26. Frame rate : 24.000 FPS

  27. Color space : YUV

  28. Chroma subsampling : 4:2:0

  29. Bit depth : 10 bits

  30. Bits/(Pixel*Frame) : 0.190

  31. Stream size : 6.39 GiB (94%)

  32. Writing library : x265 3.4+1-g07e3381df+31:[Windows][GCC 10.1.0][64 bit] Yuuki 10bit+8bit+12bit

  33. Encoding settings : rc=crf / crf=20.0000 / qcomp=0.60 / qpstep=4 / stats-write=0 / stats-read=0 / no-lossless / no-cu-lossless / aq-mode=3 / aq-strength=0.70 / cbqpoffs=0 / crqpoffs=0 / ipratio=1.40 / pbratio=1.30 / psy-rd=2.00 / psy-rdoq=0.00 / deblock=0:0 / ref=6 / limit-refs=1 / no-limit-modes / bframes=8 / b-adapt=2 / bframe-bias=0 / b-pyramid / b-intra / weightp / weightb / min-keyint=24 / max-keyint=240 / rc-lookahead=24 / gop-lookahead=0 / NTMzNTQ=uuDQuD2mJt9fsCf / scenecut=40 / hist-scenecut=0 / radl=0 / max-cu-size=64 / min-cu-size=8 / me=3 / subme=7 / merange=48 / rdoq-level=0 / rd=4 / rdpenalty=0 / dynamic-rd=0.00 / no-rd-refine / ----- / cutree / sao / no-rect / no-amp / no-open-gop / wpp / no-pmode / no-pme / no-psnr / no-ssim / nr-intra=0 / nr-inter=0 / no-constrained-intra / no-strong-intra-smoothing / max-tu-size=32 / tu-inter-depth=1 / tu-intra-depth=1 / limit-tu=0 / qg-size=32 / qpmax=69 / qpmin=0 / ----- / cpuid=533541111039 / frame-threads=4 / numa-pools=+ / log-level=2 / input-csp=1 / input-res=1920x1080 / interlace=0 / level-idc=0 / high-tier=1 / uhd-bd=0 / no-allow-non-conformance / no-repeat-headers / aud / no-hrd / info / hash=0 / no-temporal-layers / lookahead-slices=0 / no-splice / no-intra-refresh / no-ssim-rd / signhide / no-tskip / max-merge=3 / temporal-mvp / no-frame-dup / no-hme / no-analyze-src-pics / no-sao-non-deblock / selective-sao=4 / early-skip / rskip / no-fast-intra / no-tskip-fast / no-splitrd-skip / zone-count=0 / no-strict-cbr / no-rc-grain / no-const-vbv / sar=0 / overscan=0 / videoformat=5 / range=0 / colorprim=2 / transfer=2 / colormatrix=2 / chromaloc=0 / display-window=0 / cll=0,0 / min-luma=0 / max-luma=1023 / log2-max-poc-lsb=8 / vui-timing-info / vui-hrd-info / slices=1 / no-opt-qp-pps / no-opt-ref-list-length-pps / no-multi-pass-opt-rps / scenecut-bias=0.05 / hist-threshold=0.01 / no-opt-cu-delta-qp / no-aq-motion / no-hdr10 / no-hdr10-opt / no-dhdr10-opt / no-idr-recovery-sei / analysis-reuse-level=0 / analysis-save-reuse-level=0 / analysis-load-reuse-level=0 / scale-factor=0 / refine-intra=0 / refine-inter=0 / refine-mv=1 / refine-ctu-distortion=0 / no-limit-sao / ctu-info=0 / no-lowpass-dct / refine-analysis-type=0 / copy-pic=1 / max-ausize-factor=1.0 / no-dynamic-refine / no-single-sei / no-hevc-aq / no-svt / no-field / qp-adaptation-range=1.00 / no-scenecut-aware-qpconformance-window-offsets / right=0 / bottom=0 / NTMzNTQ= / decoder-max-rate=0

  34. Language : English

  35. Default : Yes

  36. Forced : No


  37. Audio #1

  38. ID : 2

  39. Format : FLAC

  40. Format/Info : Free Lossless Audio Codec

  41. Codec ID : A_FLAC

  42. Duration : 1 h 36 min

  43. Bit rate mode : Variable

  44. Bit rate : 286 kb/s

  45. Channel(s) : 2 channels

  46. Channel layout : L R

  47. Sampling rate : 48.0 kHz

  48. Frame rate : 11.719 FPS (4096 SPF)

  49. Bit depth : 16 bits

  50. Compression mode : Lossless

  51. Stream size : 198 MiB (3%)

  52. Title : Cantonese

  53. Writing library : libFLAC 1.2.1 (UTC 2007-09-17)

  54. Language : Chinese

  55. Default : Yes

  56. Forced : No


  57. Audio #2

  58. ID : 3

  59. Format : FLAC

  60. Format/Info : Free Lossless Audio Codec

  61. Codec ID : A_FLAC

  62. Duration : 1 h 36 min

  63. Bit rate mode : Variable

  64. Bit rate : 305 kb/s

  65. Channel(s) : 2 channels

  66. Channel layout : L R

  67. Sampling rate : 48.0 kHz

  68. Frame rate : 11.719 FPS (4096 SPF)

  69. Bit depth : 16 bits

  70. Compression mode : Lossless

  71. Stream size : 212 MiB (3%)

  72. Title : Mandarin

  73. Writing library : libFLAC 1.2.1 (UTC 2007-09-17)

  74. Language : Chinese

  75. Default : No

  76. Forced : No


  77. Text #1

  78. ID : 4

  79. ID in the original source medium : 4609 (0x1201)

  80. Format : PGS

  81. Muxing mode : zlib

  82. Codec ID : S_HDMV/PGS

  83. Codec ID/Info : Picture based subtitle format used on BDs/HD-DVDs

  84. Duration : 1 h 33 min

  85. Bit rate : 45.4 kb/s

  86. Count of elements : 2480

  87. Stream size : 30.5 MiB (0%)

  88. Title : chs

  89. Language : Chinese

  90. Default : Yes

  91. Forced : No

  92. Original source medium : Blu-ray


  93. Text #2

  94. ID : 5

  95. ID in the original source medium : 4608 (0x1200)

  96. Format : PGS

  97. Muxing mode : zlib

  98. Codec ID : S_HDMV/PGS

  99. Codec ID/Info : Picture based subtitle format used on BDs/HD-DVDs

  100. Duration : 1 h 33 min

  101. Bit rate : 46.4 kb/s

  102. Count of elements : 2480

  103. Stream size : 31.1 MiB (0%)

  104. Title : cht

  105. Language : Chinese

  106. Default : No

  107. Forced : No

  108. Original source medium : Blu-ray


  109. Text #3

  110. ID : 6

  111. ID in the original source medium : 4610 (0x1202)

  112. Format : PGS

  113. Muxing mode : zlib

  114. Codec ID : S_HDMV/PGS

  115. Codec ID/Info : Picture based subtitle format used on BDs/HD-DVDs

  116. Duration : 1 h 33 min

  117. Bit rate : 49.3 kb/s

  118. Count of elements : 2480

  119. Stream size : 33.1 MiB (0%)

  120. Language : English

  121. Default : No

  122. Forced : No

  123. Original source medium : Blu-ray


  124. Menu

  125. 00:00:00.000 : en:第 01 章

  126. 00:06:01.708 : en:第 02 章

  127. 00:15:14.416 : en:第 03 章

  128. 00:27:29.791 : en:第 04 章

  129. 00:33:04.083 : en:第 05 章

  130. 00:42:22.166 : en:第 06 章

  131. 00:48:04.541 : en:第 07 章

  132. 00:55:49.041 : en:第 08 章

  133. 01:03:57.916 : en:第 09 章

  134. 01:09:43.583 : en:第 10 章

  135. 01:17:15.500 : en:第 11 章

  136. 01:28:03.625 : en:第 12 章


文件下载


除非特别注明,本文『表姐,你好嘢!3之大人驾到[国粤语配音/中文字幕].Her.Fatal.Ways.III.1992.1080p.BluRay.x265.10bit.FLAC.2.0.2Audio 6.82GB』来源于互联网机器人自动抓取,非本站原创。 浮游电影网不对本文拥有版权,如有侵犯,请联系邮箱:fuyouu#yandex.com[#换成@]投诉。我们会在15个工作日内删除。 但烦请转载时请标明出处:“本文转载于『浮游电影网』,原文地址:https://www.fuyouu.com/14195.html

评论吧骚年!

发表你的见解   

昵称*

E-mail*(建议输入,以便收到博主回复的提示邮件)

验证码*

您可以使用eMule或eMule Mod(Windows)、aMule(Win、Linux、Mac)等软件下载eD2k链接。。
eMule收藏集(.emulecollection)文件是您选中的所有链接的列表文件。eMule可以直接下载它们。
按住SHIFT键选择可以选中多个选择框。
可用文件名和大小选择器来选择文件。
文件名选择器帮您根据文件名称或后缀来选择文件。不分大小写。
符号使用:
和:空格( )、+
不包含:-
或:|
转义:一对英文引号("");
匹配开头:^
匹配结尾:$
例如:
选中所有名称中包含有“eMule”或“0.49c”字眼,但不包含有“exe”字眼的:emule|0.49c -exe
选中所有名称的开头是“eMule”,结尾是“0.49c”的:^emule 0.49c$
选中所有名称中带有“eMule 0.49c”的(必须是“eMule 0.49c”,中间没有别的字符,不能是“eMule fake 0.49c”),需要转义:"emule 0.49c"
大小选择器帮您根据文件大小选择文件。