当前位置: 首页 >> 日韩电影 >> 37秒[中文字幕].37.Seconds.2020.1080p.NF.WEB-DL.DDP5.1.x264 4.43GB >> 正文

37秒[中文字幕].37.Seconds.2020.1080p.NF.WEB-DL.DDP5.1.x264 4.43GB

2021年09月05日 17:18:32     电影发布:来源于网络     电影分类:日韩电影     评论(0)    

37秒[中文字幕].37.Seconds.2020.1080p.NF.WEB DL.DDP5.1.x264 4.43GB 剧情片 日韩电影  第1张

◎译 名 37秒 / 漫画少女爱启蒙(台) / 缺氧37秒 / 37 Seconds

◎片 名 37セカンズ

◎年 代 2019

◎产 地 日本

◎类 别 剧情

◎语 言 日语

◎上映日期 2019-02-09(柏林电影节) / 2020-02-07(日本)

◎IMDb链接 https://www.imdb.com/title/tt6156138/

◎豆瓣评分 7.4/10 (4720人评价)

◎豆瓣链接 https://movie.douban.com/subject/30327451/

◎片 长 115分钟

◎导 演 宮崎光代 HIKARI (id:1411031)

◎编 剧 宮崎光代 HIKARI (id:1411031)

◎演 员 佳山明 Mei Kayama (id:1430621)

神野三铃 Misuzu Kanno (id:1351579)

大东骏介 Shunsuke Daito (id:1275037)

渡边真起子 Makiko Watanabe (id:1051943)

萩原实里 Minori Hagiwara (id:1349489)

宇野祥平 Sh?hei Uno (id:1340184)

芋生悠 Haruka Imou (id:1379909)

涩川清彦 Kiyohiko Shibukawa (id:1011362)

奥野瑛太 Eita Okuno (id:1353121)

石桥静河 Shizuka Ishibashi (id:1366823)

尾美利德 Toshinori Omi (id:1039098)

板谷由夏 Yuka Itaya (id:1010770)

宮崎光代 HIKARI (id:1411031)

◎标 签 日本 / 成长 / 日本电影 / 剧情 / 2019 / 柏林电影节 / 宮崎光代 / 电影

◎简 介

「使人残疾的是心,不是身体。」二十三岁的贵田梦马因脑性麻痺,长年以轮椅代步,母亲待她如易折的鲜花,偏执呵护,但隐藏在美少女漫画师身份背后的她,依旧梦想著独立自主。梦马将作品投稿至成人漫画编辑部,却被批评「经验不足」,她也因此开始探索自己的慾望。当她与专门为身障者提供性服务的舞姐相遇,性启蒙的欢愉仿如盛开的花蕊,艳丽而张扬,而关于她生命起点的秘密,也正隐隐显现端倪……。

以爱欲启蒙为主轴,导演HIKARI在海选中深受零表演经验的佳山明吸引,并以她身为大脑性瘫痪残障人士的亲身经验重新编写,虚实交织成这部缤纷曼妙的真挚之作。资深演员神野三铃、渡边真起子分别饰演保守派母亲与解放派性工作者,情感张力十足,涩川清彦、石桥静河惊喜现身更添亮点。

「人应该有无限可能,唯一的限制,只会是我们自身。」──HIKARI

◎获奖情况 (共1项)

第14届亚洲电影大奖 (2020)

最佳新导演

└──宮崎光代 (id:1411031)

  1. ##### MediaInfo ######

  2. General

  3. Unique ID : 105595754409430082116564107219730115175 (0x4F7100A6931F72CC8D893981CDCF2A67)

  4. Complete name : 37.Seconds.2020.1080p.NF.WEB-DL.DDP5.1.x264-10002@BBQDDQ.COM.mkv

  5. Format : Matroska

  6. Format version : Version 4

  7. File size : 4.43 GiB

  8. Duration : 1 h 55 min

  9. Overall bit rate mode : Variable

  10. Overall bit rate : 5 474 kb/s

  11. Encoded date : UTC 2021-09-04 05:54:45

  12. Writing application : mkvmerge v44.0.0 ('Domino') 64-bit

  13. Writing library : libebml v1.3.10 + libmatroska v1.5.2


  14. Video

  15. ID : 1

  16. Format : AVC

  17. Format/Info : Advanced Video Codec

  18. Format profile : Main@L4

  19. Format settings : CABAC / 3 Ref Frames

  20. Format settings, CABAC : Yes

  21. Format settings, Reference frames : 3 frames

  22. Codec ID : V_MPEG4/ISO/AVC

  23. Duration : 1 h 55 min

  24. Bit rate mode : Variable

  25. Bit rate : 4 220 kb/s

  26. Maximum bit rate : 6 330 kb/s

  27. Width : 1 920 pixels

  28. Height : 1 080 pixels

  29. Display aspect ratio : 16:9

  30. Frame rate mode : Constant

  31. Frame rate : 24.000 FPS

  32. Color space : YUV

  33. Chroma subsampling : 4:2:0

  34. Bit depth : 8 bits

  35. Scan type : Progressive

  36. Bits/(Pixel*Frame) : 0.085

  37. Stream size : 3.39 GiB (77%)

  38. Writing library : x264 core 148 r2715 7e75228

  39. Encoding settings : cabac=1 / ref=3 / deblock=1:0:0 / analyse=0x1:0x111 / me=umh / subme=10 / psy=1 / psy_rd=1.00:0.00 / mixed_ref=1 / me_range=24 / chroma_me=1 / trellis=2 / 8x8dct=0 / cqm=0 / deadzone=21,11 / fast_pskip=1 / chroma_qp_offset=-2 / threads=8 / lookahead_threads=1 / sliced_threads=0 / nr=0 / decimate=1 / interlaced=0 / NTMzNTQ= / bluray_compat=0 / stitchable=1 / constrained_intra=0 / bframes=2 / b_pyramid=0 / b_adapt=2 / b_bias=0 / direct=3 / weightb=1 / open_gop=0 / weightp=2 / keyint=250 / keyint_min=24 / scenecut=0 / intra_refresh=0 / rc_lookahead=48 / rc=2pass / mbtree=1 / bitrate=4220 / ratetol=1.0 / qcomp=0.50 / qpmin=6 / qpmax=51 / qpstep=4 / cplxblur=20.0 / qblur=0.5 / vbv_maxrate=6330 / vbv_bufsize=8440 / nal_hrd=vbr / filler=0 / NTMzNTQ=LmsMAP37EqsCpk / ip_ratio=1.40 / aq=1:1.00

  40. Default : Yes

  41. Forced : No


  42. Audio #1

  43. ID : 2

  44. Format : E-AC-3

  45. Format/Info : Enhanced AC-3

  46. Commercial name : Dolby Digital Plus

  47. Codec ID : A_EAC3

  48. Duration : 1 h 55 min

  49. Bit rate mode : Constant

  50. Bit rate : 640 kb/s

  51. Channel(s) : 6 channels

  52. Channel layout : L R C LFE Ls Rs

  53. Sampling rate : 48.0 kHz

  54. Frame rate : 31.250 FPS (1536 SPF)

  55. Compression mode : Lossy

  56. Stream size : 530 MiB (12%)

  57. Title : Japanese

  58. Language : Japanese

  59. Service kind : Complete Main

  60. Default : Yes

  61. Forced : No


  62. Audio #2

  63. ID : 3

  64. Format : E-AC-3

  65. Format/Info : Enhanced AC-3

  66. Commercial name : Dolby Digital Plus

  67. Codec ID : A_EAC3

  68. Duration : 1 h 55 min

  69. Bit rate mode : Constant

  70. Bit rate : 640 kb/s

  71. Channel(s) : 6 channels

  72. Channel layout : L R C LFE Ls Rs

  73. Sampling rate : 48.0 kHz

  74. Frame rate : 31.250 FPS (1536 SPF)

  75. Compression mode : Lossy

  76. Stream size : 530 MiB (12%)

  77. Title : French

  78. Language : French

  79. Service kind : Complete Main

  80. Default : No

  81. Forced : No


  82. Text #1

  83. ID : 4

  84. Format : UTF-8

  85. Codec ID : S_TEXT/UTF8

  86. Codec ID/Info : UTF-8 Plain Text

  87. Duration : 1 h 50 min

  88. Bit rate : 24 b/s

  89. Count of elements : 853

  90. Stream size : 19.4 KiB (0%)

  91. Title : English

  92. Language : English

  93. Default : Yes

  94. Forced : No


  95. Text #2

  96. ID : 5

  97. Format : UTF-8

  98. Codec ID : S_TEXT/UTF8

  99. Codec ID/Info : UTF-8 Plain Text

  100. Duration : 1 h 50 min

  101. Bit rate : 39 b/s

  102. Count of elements : 858

  103. Stream size : 32.0 KiB (0%)

  104. Title : Arabic

  105. Language : Arabic

  106. Default : No

  107. Forced : No


  108. Text #3

  109. ID : 6

  110. Format : UTF-8

  111. Codec ID : S_TEXT/UTF8

  112. Codec ID/Info : UTF-8 Plain Text

  113. Duration : 1 h 50 min

  114. Bit rate : 26 b/s

  115. Count of elements : 858

  116. Stream size : 21.3 KiB (0%)

  117. Title : Chinese Simplified

  118. Language : Chinese

  119. Default : No

  120. Forced : No


  121. Text #4

  122. ID : 7

  123. Format : UTF-8

  124. Codec ID : S_TEXT/UTF8

  125. Codec ID/Info : UTF-8 Plain Text

  126. Duration : 1 h 50 min

  127. Bit rate : 25 b/s

  128. Count of elements : 869

  129. Stream size : 20.3 KiB (0%)

  130. Title : Chinese Traditional

  131. Language : Chinese

  132. Default : No

  133. Forced : No


  134. Text #5

  135. ID : 8

  136. Format : UTF-8

  137. Codec ID : S_TEXT/UTF8

  138. Codec ID/Info : UTF-8 Plain Text

  139. Duration : 1 h 50 min

  140. Bit rate : 24 b/s

  141. Count of elements : 856

  142. Stream size : 19.8 KiB (0%)

  143. Title : Czech

  144. Language : Czech

  145. Default : No

  146. Forced : No


  147. Text #6

  148. ID : 9

  149. Format : UTF-8

  150. Codec ID : S_TEXT/UTF8

  151. Codec ID/Info : UTF-8 Plain Text

  152. Duration : 1 h 50 min

  153. Bit rate : 25 b/s

  154. Count of elements : 858

  155. Stream size : 20.3 KiB (0%)

  156. Title : Danish

  157. Language : Danish

  158. Default : No

  159. Forced : No


  160. Text #7

  161. ID : 10

  162. Format : UTF-8

  163. Codec ID : S_TEXT/UTF8

  164. Codec ID/Info : UTF-8 Plain Text

  165. Duration : 1 h 50 min

  166. Bit rate : 24 b/s

  167. Count of elements : 855

  168. Stream size : 19.4 KiB (0%)

  169. Title : Dutch

  170. Language : Dutch

  171. Default : No

  172. Forced : No


  173. Text #8

  174. ID : 11

  175. Format : UTF-8

  176. Codec ID : S_TEXT/UTF8

  177. Codec ID/Info : UTF-8 Plain Text

  178. Duration : 1 h 50 min

  179. Bit rate : 24 b/s

  180. Count of elements : 858

  181. Stream size : 19.6 KiB (0%)

  182. Title : Finnish

  183. Language : Finnish

  184. Default : No

  185. Forced : No


  186. Text #9

  187. ID : 12

  188. Format : UTF-8

  189. Codec ID : S_TEXT/UTF8

  190. Codec ID/Info : UTF-8 Plain Text

  191. Duration : 1 h 50 min

  192. Bit rate : 24 b/s

  193. Count of elements : 858

  194. Stream size : 20.1 KiB (0%)

  195. Title : French

  196. Language : French

  197. Default : No

  198. Forced : No


  199. Text #10

  200. ID : 13

  201. Format : UTF-8

  202. Codec ID : S_TEXT/UTF8

  203. Codec ID/Info : UTF-8 Plain Text

  204. Duration : 1 h 50 min

  205. Bit rate : 26 b/s

  206. Count of elements : 858

  207. Stream size : 21.3 KiB (0%)

  208. Title : German

  209. Language : German

  210. Default : No

  211. Forced : No


  212. Text #11

  213. ID : 14

  214. Format : UTF-8

  215. Codec ID : S_TEXT/UTF8

  216. Codec ID/Info : UTF-8 Plain Text

  217. Duration : 1 h 50 min

  218. Bit rate : 42 b/s

  219. Count of elements : 858

  220. Stream size : 34.0 KiB (0%)

  221. Title : Greek

  222. Language : Greek

  223. Default : No

  224. Forced : No


  225. Text #12

  226. ID : 15

  227. Format : UTF-8

  228. Codec ID : S_TEXT/UTF8

  229. Codec ID/Info : UTF-8 Plain Text

  230. Duration : 1 h 50 min

  231. Bit rate : 35 b/s

  232. Count of elements : 858

  233. Stream size : 28.8 KiB (0%)

  234. Title : Hebrew

  235. Language : Hebrew

  236. Default : No

  237. Forced : No


  238. Text #13

  239. ID : 16

  240. Format : UTF-8

  241. Codec ID : S_TEXT/UTF8

  242. Codec ID/Info : UTF-8 Plain Text

  243. Duration : 1 h 50 min

  244. Bit rate : 24 b/s

  245. Count of elements : 856

  246. Stream size : 19.6 KiB (0%)

  247. Title : Hungarian

  248. Language : Hungarian

  249. Default : No

  250. Forced : No


  251. Text #14

  252. ID : 17

  253. Format : UTF-8

  254. Codec ID : S_TEXT/UTF8

  255. Codec ID/Info : UTF-8 Plain Text

  256. Duration : 1 h 50 min

  257. Bit rate : 24 b/s

  258. Count of elements : 858

  259. Stream size : 19.9 KiB (0%)

  260. Title : Indonesian

  261. Language : Indonesian

  262. Default : No

  263. Forced : No


  264. Text #15

  265. ID : 18

  266. Format : UTF-8

  267. Codec ID : S_TEXT/UTF8

  268. Codec ID/Info : UTF-8 Plain Text

  269. Duration : 1 h 50 min

  270. Bit rate : 25 b/s

  271. Count of elements : 856

  272. Stream size : 20.4 KiB (0%)

  273. Title : Italian

  274. Language : Italian

  275. Default : No

  276. Forced : No


  277. Text #16

  278. ID : 19

  279. Format : UTF-8

  280. Codec ID : S_TEXT/UTF8

  281. Codec ID/Info : UTF-8 Plain Text

  282. Duration : 1 h 55 min

  283. Bit rate : 50 b/s

  284. Count of elements : 1196

  285. Stream size : 42.6 KiB (0%)

  286. Title : Japanese

  287. Language : Japanese

  288. Default : No

  289. Forced : No


  290. Text #17

  291. ID : 20

  292. Format : UTF-8

  293. Codec ID : S_TEXT/UTF8

  294. Codec ID/Info : UTF-8 Plain Text

  295. Duration : 1 h 43 min

  296. Bit rate : 0 b/s

  297. Count of elements : 17

  298. Stream size : 730 Bytes (0%)

  299. Title : Japanese (Forced)

  300. Language : Japanese

  301. Default : No

  302. Forced : Yes


  303. Text #18

  304. ID : 21

  305. Format : UTF-8

  306. Codec ID : S_TEXT/UTF8

  307. Codec ID/Info : UTF-8 Plain Text

  308. Duration : 1 h 50 min

  309. Bit rate : 32 b/s

  310. Count of elements : 855

  311. Stream size : 25.9 KiB (0%)

  312. Title : Korean

  313. Language : Korean

  314. Default : No

  315. Forced : No


  316. Text #19

  317. ID : 22

  318. Format : UTF-8

  319. Codec ID : S_TEXT/UTF8

  320. Codec ID/Info : UTF-8 Plain Text

  321. Duration : 1 h 50 min

  322. Bit rate : 24 b/s

  323. Count of elements : 857

  324. Stream size : 19.5 KiB (0%)

  325. Title : Norwegian Bokmal

  326. Language : Norwegian Bokmal

  327. Default : No

  328. Forced : No


  329. Text #20

  330. ID : 23

  331. Format : UTF-8

  332. Codec ID : S_TEXT/UTF8

  333. Codec ID/Info : UTF-8 Plain Text

  334. Duration : 1 h 50 min

  335. Bit rate : 24 b/s

  336. Count of elements : 857

  337. Stream size : 19.8 KiB (0%)

  338. Title : Polish

  339. Language : Polish

  340. Default : No

  341. Forced : No


  342. Text #21

  343. ID : 24

  344. Format : UTF-8

  345. Codec ID : S_TEXT/UTF8

  346. Codec ID/Info : UTF-8 Plain Text

  347. Duration : 1 h 50 min

  348. Bit rate : 25 b/s

  349. Count of elements : 858

  350. Stream size : 20.2 KiB (0%)

  351. Title : Portuguese

  352. Language : Portuguese

  353. Default : No

  354. Forced : No


  355. Text #22

  356. ID : 25

  357. Format : UTF-8

  358. Codec ID : S_TEXT/UTF8

  359. Codec ID/Info : UTF-8 Plain Text

  360. Duration : 1 h 50 min

  361. Bit rate : 23 b/s

  362. Count of elements : 858

  363. Stream size : 18.6 KiB (0%)

  364. Title : Brazilian Portuguese

  365. Language : Portuguese

  366. Default : No

  367. Forced : No


  368. Text #23

  369. ID : 26

  370. Format : UTF-8

  371. Codec ID : S_TEXT/UTF8

  372. Codec ID/Info : UTF-8 Plain Text

  373. Duration : 1 h 50 min

  374. Bit rate : 28 b/s

  375. Count of elements : 856

  376. Stream size : 22.6 KiB (0%)

  377. Title : Romanian

  378. Language : Romanian

  379. Default : No

  380. Forced : No


  381. Text #24

  382. ID : 27

  383. Format : UTF-8

  384. Codec ID : S_TEXT/UTF8

  385. Codec ID/Info : UTF-8 Plain Text

  386. Duration : 1 h 50 min

  387. Bit rate : 38 b/s

  388. Count of elements : 858

  389. Stream size : 31.2 KiB (0%)

  390. Title : Russian

  391. Language : Russian

  392. Default : No

  393. Forced : No


  394. Text #25

  395. ID : 28

  396. Format : UTF-8

  397. Codec ID : S_TEXT/UTF8

  398. Codec ID/Info : UTF-8 Plain Text

  399. Duration : 1 h 50 min

  400. Bit rate : 25 b/s

  401. Count of elements : 858

  402. Stream size : 20.5 KiB (0%)

  403. Title : Spanish

  404. Language : Spanish

  405. Default : No

  406. Forced : No


  407. Text #26

  408. ID : 29

  409. Format : UTF-8

  410. Codec ID : S_TEXT/UTF8

  411. Codec ID/Info : UTF-8 Plain Text

  412. Duration : 1 h 50 min

  413. Bit rate : 25 b/s

  414. Count of elements : 858

  415. Stream size : 20.9 KiB (0%)

  416. Title : European Spanish

  417. Language : Spanish

  418. Default : No

  419. Forced : No


  420. Text #27

  421. ID : 30

  422. Format : UTF-8

  423. Codec ID : S_TEXT/UTF8

  424. Codec ID/Info : UTF-8 Plain Text

  425. Duration : 1 h 50 min

  426. Bit rate : 25 b/s

  427. Count of elements : 856

  428. Stream size : 20.2 KiB (0%)

  429. Title : Swedish

  430. Language : Swedish

  431. Default : No

  432. Forced : No


  433. Text #28

  434. ID : 31

  435. Format : UTF-8

  436. Codec ID : S_TEXT/UTF8

  437. Codec ID/Info : UTF-8 Plain Text

  438. Duration : 1 h 50 min

  439. Bit rate : 63 b/s

  440. Count of elements : 858

  441. Stream size : 51.1 KiB (0%)

  442. Title : Thai

  443. Language : Thai

  444. Default : No

  445. Forced : No


  446. Text #29

  447. ID : 32

  448. Format : UTF-8

  449. Codec ID : S_TEXT/UTF8

  450. Codec ID/Info : UTF-8 Plain Text

  451. Duration : 1 h 50 min

  452. Bit rate : 25 b/s

  453. Count of elements : 858

  454. Stream size : 20.3 KiB (0%)

  455. Title : Turkish

  456. Language : Turkish

  457. Default : No

  458. Forced : No


  459. Text #30

  460. ID : 33

  461. Format : UTF-8

  462. Codec ID : S_TEXT/UTF8

  463. Codec ID/Info : UTF-8 Plain Text

  464. Duration : 1 h 50 min

  465. Bit rate : 35 b/s

  466. Count of elements : 858

  467. Stream size : 28.4 KiB (0%)

  468. Title : Vietnamese

  469. Language : Vietnamese

  470. Default : No

  471. Forced : No

文件下载


除非特别注明,本文『37秒[中文字幕].37.Seconds.2020.1080p.NF.WEB-DL.DDP5.1.x264 4.43GB』来源于互联网机器人自动抓取,非本站原创。 浮游电影网不对本文拥有版权,如有侵犯,请联系邮箱:fuyouu#yandex.com[#换成@]投诉。我们会在15个工作日内删除。 但烦请转载时请标明出处:“本文转载于『浮游电影网』,原文地址:https://www.fuyouu.com/14193.html

评论吧骚年!

发表你的见解   

昵称*

E-mail*(建议输入,以便收到博主回复的提示邮件)

验证码*

您可以使用eMule或eMule Mod(Windows)、aMule(Win、Linux、Mac)等软件下载eD2k链接。。
eMule收藏集(.emulecollection)文件是您选中的所有链接的列表文件。eMule可以直接下载它们。
按住SHIFT键选择可以选中多个选择框。
可用文件名和大小选择器来选择文件。
文件名选择器帮您根据文件名称或后缀来选择文件。不分大小写。
符号使用:
和:空格( )、+
不包含:-
或:|
转义:一对英文引号("");
匹配开头:^
匹配结尾:$
例如:
选中所有名称中包含有“eMule”或“0.49c”字眼,但不包含有“exe”字眼的:emule|0.49c -exe
选中所有名称的开头是“eMule”,结尾是“0.49c”的:^emule 0.49c$
选中所有名称中带有“eMule 0.49c”的(必须是“eMule 0.49c”,中间没有别的字符,不能是“eMule fake 0.49c”),需要转义:"emule 0.49c"
大小选择器帮您根据文件大小选择文件。