当前位置: 首页 >> 港台电影 >> 表姐,你好嘢![国粤语配音/中文字幕].Her.Fatal.Ways.1990.1080p.BluRay.x265.10bit.DTS.2Audio 7.87GB >> 正文

表姐,你好嘢![国粤语配音/中文字幕].Her.Fatal.Ways.1990.1080p.BluRay.x265.10bit.DTS.2Audio 7.87GB

2021年09月05日 17:17:19     电影发布:来源于网络     电影分类:港台电影     评论(0)    

表姐,你好嘢![国粤语配音/中文字幕].Her.Fatal.Ways.1990.1080p.BluRay.x265.10bit.DTS.2Audio 7.87GB 动作片 喜剧片 剧情片 港台电影  第1张

◎译 名 表姐,你好嘢! / 表姐当家 / Her Fatal Ways

◎片 名 表姐,妳好嘢!

◎年 代 1990

◎产 地 中国香港

◎类 别 剧情 / 喜剧 / 动作

◎语 言 粤语 / 汉语普通话 / 四川话

◎上映日期 1990-06-28

◎IMDb链接 https://www.imdb.com/title/tt0101442/

◎豆瓣评分 7.7/10 (8143人评价)

◎豆瓣链接 https://movie.douban.com/subject/1302441/

◎片 长 100分钟

◎导 演 张坚庭 Alfred Cheung (id:1016979)

◎编 剧 张坚庭 Alfred Cheung (id:1016979)

黄宏基 Keith Wong (id:1320279)

◎演 员 郑裕玲 Carol 'Do Do' Cheng (id:1070060)

梁家辉 Tony Leung (id:1118167)

张坚庭 Alfred Cheung (id:1016979)

周文健 Michael Chow Man-Kin (id:1317086)

李耀景 Yiu Ging Lee (id:1351454)

梁翠红 Chui-Hung Leung (id:1441057)

何添 Tim Ho (id:1408607)

王文駿 Man-Chun Wong (id:1441056)

朱斗 Tau Chu (id:1441054)

黄新 Sun Wong (id:1342013)

陈锦鸿 Sunny Chan (id:1275332)

陈淑兰 Sheila Chan (id:1314841)

方刚 Kong Fong (id:1315260)

白文彪 Man-Biu Bak (id:1340413)

凌志雄 Chi-hung Ling (id:1440984)

胡曼音 Maan-yam Woo (id:1440976)

陈望华 Alexander Chan (id:1280418)

秦贵宝 Kwai Po Chun (id:1417957)

凌志华 Chi Wah Ling (id:1335020)

洪新南 Hsin Nan Hung (id:1383214)

林聪 Chung Lam (id:1355709)

谷轩昭 Huan-Chiu Ku (id:1289063)

冯敬文 Ging Man Fung (id:1341397)

古明华 Ming-Wah Koo (id:1304613)

张锦程 Emotion Cheung (id:1313425)

西瓜刨 Gwa-pau Sai (id:1220481)

曹达华 Tat-wah Cho (id:1070438)

林蛟 Kau Lam (id:1342431)

何柏光 Pak-Kwong Ho (id:1350540)

林迪安 Dion Lam (id:1289289)

姚文基 Man-kei Yiu (id:1435360)

梁心 Hsin Liang (id:1427057)

尹灵光 Leng-Kuang Yin (id:1368961)

梁克逊 Hak Shun Leung (id:1345682)

雷达 Tat Lui (id:1361262)

麦伟章 Wai Cheung Mak (id:1361256)

林映辉 Anges Lam (id:1384033)

彭绮华 Jacky Pang Yee Wah (id:1313613)

何冠昌 Leonard Ho (id:1286717)

陈佩华 Jessica Chan Pooi-Wa (id:1372898)

陈友 Anthony Chan (id:1028948)

林敏怡 Man Yee Lam (id:1289301)

邝志良 Chi-Leung Kwong (id:1289164)

余纯 Shung Yu (id:1301561)

彭绮华 Jacky Pang Yee Wah (id:1313613)

钱嘉乐 Kar Lok Chin (id:1025476)

◎标 签 香港 / 喜剧 / 郑裕玲 / 香港电影 / 梁家辉 / 张坚庭 / 1991 / 喜劇

◎简 介

四川女公安郑大姐(郑裕玲饰)负责赴港捉拿逃跑的疑犯,不得不与香港警方合作。警长伍卫国(梁家辉饰)负责接待与合作调查,被初次到港、天真纯朴的郑大姐与助手阿胜(张坚庭饰)弄得晕头转相。

由于地区文化差异,郑大姐与伍卫国不断产生摩擦、矛盾,多次让疑犯有机可乘、逃之夭夭。

由于在旅馆被疑犯袭击,督察安排郑大姐去伍卫国家住。而伍卫国之父正是当年国民党军72师的排长。由于信仰不同,郑大姐一到家就与伍父闹了个水火不容。一连串爆笑的争锋相对就这样展开了,而奇妙的事,郑大姐与伍卫国之间的感情也在慢慢产生变化......

◎获奖情况 (共3项)

第27届台北金马影展 (1990)

金马奖 最佳女主角(提名)

└──郑裕玲 (id:1070060)

金马奖 最佳改编剧本(提名)

第10届香港电影金像奖 (1991)

最佳女主角

└──郑裕玲 (id:1070060)

  1. ##### MediaInfo ######

  2. General

  3. Unique ID : 13107377204952426592106434978496390480 (0x9DC639726CC23D6F3C68FF1F2742550)

  4. Complete name : Her.Fatal.Ways.1990.1080p.BluRay.x265.10bit.DTS.2Audio-10017@BBQDDQ.COM.mkv

  5. Format : Matroska

  6. Format version : Version 4

  7. File size : 7.86 GiB

  8. Duration : 1 h 40 min

  9. Overall bit rate : 11.2 Mb/s

  10. Encoded date : UTC 2021-09-03 02:40:06

  11. Writing application : mkvmerge v55.0.0 ('Waiting For Space') 64-bit

  12. Writing library : libebml v1.4.2 + libmatroska v1.6.4


  13. Video

  14. ID : 1

  15. Format : HEVC

  16. Format/Info : High Efficiency Video Coding

  17. Format profile : Main 10@L5@Main

  18. Codec ID : V_MPEGH/ISO/HEVC

  19. Duration : 1 h 40 min

  20. Bit rate : 8 109 kb/s

  21. Width : 1 920 pixels

  22. Height : 1 080 pixels

  23. Display aspect ratio : 16:9

  24. Frame rate mode : Constant

  25. Frame rate : 24.000 FPS

  26. Color space : YUV

  27. Chroma subsampling : 4:2:0

  28. Bit depth : 10 bits

  29. Bits/(Pixel*Frame) : 0.163

  30. Stream size : 5.71 GiB (73%)

  31. Writing library : x265 3.4+1-g07e3381df+31:[Windows][GCC 10.1.0][64 bit] Yuuki 10bit+8bit+12bit

  32. Encoding settings : rc=crf / crf=20.0000 / qcomp=0.60 / qpstep=4 / stats-write=0 / stats-read=0 / no-lossless / no-cu-lossless / aq-mode=3 / aq-strength=0.70 / cbqpoffs=0 / crqpoffs=0 / ipratio=1.40 / pbratio=1.30 / psy-rd=2.00 / psy-rdoq=0.00 / deblock=0:0 / ref=6 / limit-refs=1 / no-limit-modes / bframes=8 / b-adapt=2 / bframe-bias=0 / b-pyramid / b-intra / weightp / weightb / min-keyint=24 / max-keyint=240 / rc-lookahead=24 / gop-lookahead=0 / NTMzNTQ=uuDQuD2mJt9fsCf / scenecut=40 / hist-scenecut=0 / radl=0 / max-cu-size=64 / min-cu-size=8 / me=3 / subme=7 / merange=48 / rdoq-level=0 / rd=4 / rdpenalty=0 / dynamic-rd=0.00 / no-rd-refine / ----- / cutree / sao / no-rect / no-amp / no-open-gop / wpp / no-pmode / no-pme / no-psnr / no-ssim / nr-intra=0 / nr-inter=0 / no-constrained-intra / no-strong-intra-smoothing / max-tu-size=32 / tu-inter-depth=1 / tu-intra-depth=1 / limit-tu=0 / qg-size=32 / qpmax=69 / qpmin=0 / ----- / cpuid=533541111039 / frame-threads=4 / numa-pools=+ / log-level=2 / input-csp=1 / input-res=1920x1080 / interlace=0 / level-idc=0 / high-tier=1 / uhd-bd=0 / no-allow-non-conformance / no-repeat-headers / aud / no-hrd / info / hash=0 / no-temporal-layers / lookahead-slices=0 / no-splice / no-intra-refresh / no-ssim-rd / signhide / no-tskip / max-merge=3 / temporal-mvp / no-frame-dup / no-hme / no-analyze-src-pics / no-sao-non-deblock / selective-sao=4 / early-skip / rskip / no-fast-intra / no-tskip-fast / no-splitrd-skip / zone-count=0 / no-strict-cbr / no-rc-grain / no-const-vbv / sar=0 / overscan=0 / videoformat=5 / range=0 / colorprim=2 / transfer=2 / colormatrix=2 / chromaloc=0 / display-window=0 / cll=0,0 / min-luma=0 / max-luma=1023 / log2-max-poc-lsb=8 / vui-timing-info / vui-hrd-info / slices=1 / no-opt-qp-pps / no-opt-ref-list-length-pps / no-multi-pass-opt-rps / scenecut-bias=0.05 / hist-threshold=0.01 / no-opt-cu-delta-qp / no-aq-motion / no-hdr10 / no-hdr10-opt / no-dhdr10-opt / no-idr-recovery-sei / analysis-reuse-level=0 / analysis-save-reuse-level=0 / analysis-load-reuse-level=0 / scale-factor=0 / refine-intra=0 / refine-inter=0 / refine-mv=1 / refine-ctu-distortion=0 / no-limit-sao / ctu-info=0 / no-lowpass-dct / refine-analysis-type=0 / copy-pic=1 / max-ausize-factor=1.0 / no-dynamic-refine / no-single-sei / no-hevc-aq / no-svt / no-field / qp-adaptation-range=1.00 / no-scenecut-aware-qpconformance-window-offsets / right=0 / bottom=0 / NTMzNTQ= / decoder-max-rate=0

  33. Language : English

  34. Default : Yes

  35. Forced : No


  36. Audio #1

  37. ID : 2

  38. Format : DTS

  39. Format/Info : Digital Theater Systems

  40. Codec ID : A_DTS

  41. Duration : 1 h 40 min

  42. Bit rate mode : Constant

  43. Bit rate : 1 510 kb/s

  44. Channel(s) : 6 channels

  45. Channel layout : C L R Ls Rs LFE

  46. Sampling rate : 48.0 kHz

  47. Frame rate : 93.750 FPS (512 SPF)

  48. Bit depth : 24 bits

  49. Compression mode : Lossy

  50. Stream size : 1.06 GiB (14%)

  51. Title : Cantonese

  52. Language : Chinese

  53. Default : Yes

  54. Forced : No


  55. Audio #2

  56. ID : 3

  57. Format : DTS

  58. Format/Info : Digital Theater Systems

  59. Codec ID : A_DTS

  60. Duration : 1 h 40 min

  61. Bit rate mode : Constant

  62. Bit rate : 1 510 kb/s

  63. Channel(s) : 6 channels

  64. Channel layout : C L R Ls Rs LFE

  65. Sampling rate : 48.0 kHz

  66. Frame rate : 93.750 FPS (512 SPF)

  67. Bit depth : 24 bits

  68. Compression mode : Lossy

  69. Stream size : 1.06 GiB (14%)

  70. Title : Mandarin

  71. Language : Chinese

  72. Default : No

  73. Forced : No


  74. Text #1

  75. ID : 4

  76. ID in the original source medium : 4609 (0x1201)

  77. Format : PGS

  78. Muxing mode : zlib

  79. Codec ID : S_HDMV/PGS

  80. Codec ID/Info : Picture based subtitle format used on BDs/HD-DVDs

  81. Duration : 1 h 37 min

  82. Bit rate : 34.6 kb/s

  83. Count of elements : 2123

  84. Stream size : 24.1 MiB (0%)

  85. Title : chs

  86. Language : Chinese

  87. Default : Yes

  88. Forced : No

  89. Original source medium : Blu-ray


  90. Text #2

  91. ID : 5

  92. ID in the original source medium : 4608 (0x1200)

  93. Format : PGS

  94. Muxing mode : zlib

  95. Codec ID : S_HDMV/PGS

  96. Codec ID/Info : Picture based subtitle format used on BDs/HD-DVDs

  97. Duration : 1 h 37 min

  98. Bit rate : 35.5 kb/s

  99. Count of elements : 2123

  100. Stream size : 24.6 MiB (0%)

  101. Title : cht

  102. Language : Chinese

  103. Default : No

  104. Forced : No

  105. Original source medium : Blu-ray


  106. Text #3

  107. ID : 6

  108. ID in the original source medium : 4610 (0x1202)

  109. Format : PGS

  110. Muxing mode : zlib

  111. Codec ID : S_HDMV/PGS

  112. Codec ID/Info : Picture based subtitle format used on BDs/HD-DVDs

  113. Duration : 1 h 37 min

  114. Bit rate : 36.7 kb/s

  115. Count of elements : 2123

  116. Stream size : 25.5 MiB (0%)

  117. Language : English

  118. Default : No

  119. Forced : No

  120. Original source medium : Blu-ray


  121. Menu

  122. 00:00:00.000 : en:第 01 章

  123. 00:08:18.958 : en:第 02 章

  124. 00:18:37.583 : en:第 03 章

  125. 00:26:00.083 : en:第 04 章

  126. 00:34:04.208 : en:第 05 章

  127. 00:41:53.708 : en:第 06 章

  128. 00:49:41.250 : en:第 07 章

  129. 00:57:18.666 : en:第 08 章

  130. 01:05:43.208 : en:第 09 章

  131. 01:14:43.583 : en:第 10 章

  132. 01:24:30.583 : en:第 11 章

  133. 01:32:36.708 : en:第 12 章


文件下载


除非特别注明,本文『表姐,你好嘢![国粤语配音/中文字幕].Her.Fatal.Ways.1990.1080p.BluRay.x265.10bit.DTS.2Audio 7.87GB』来源于互联网机器人自动抓取,非本站原创。 浮游电影网不对本文拥有版权,如有侵犯,请联系邮箱:fuyouu#yandex.com[#换成@]投诉。我们会在15个工作日内删除。 但烦请转载时请标明出处:“本文转载于『浮游电影网』,原文地址:https://www.fuyouu.com/14192.html

评论吧骚年!

发表你的见解   

昵称*

E-mail*(建议输入,以便收到博主回复的提示邮件)

验证码*

您可以使用eMule或eMule Mod(Windows)、aMule(Win、Linux、Mac)等软件下载eD2k链接。。
eMule收藏集(.emulecollection)文件是您选中的所有链接的列表文件。eMule可以直接下载它们。
按住SHIFT键选择可以选中多个选择框。
可用文件名和大小选择器来选择文件。
文件名选择器帮您根据文件名称或后缀来选择文件。不分大小写。
符号使用:
和:空格( )、+
不包含:-
或:|
转义:一对英文引号("");
匹配开头:^
匹配结尾:$
例如:
选中所有名称中包含有“eMule”或“0.49c”字眼,但不包含有“exe”字眼的:emule|0.49c -exe
选中所有名称的开头是“eMule”,结尾是“0.49c”的:^emule 0.49c$
选中所有名称中带有“eMule 0.49c”的(必须是“eMule 0.49c”,中间没有别的字符,不能是“eMule fake 0.49c”),需要转义:"emule 0.49c"
大小选择器帮您根据文件大小选择文件。