当前位置: 首页 >> 欧美电影 >> 渔王[中文字幕].The.Fisher.King.1991.1080p.BluRay.x265.10bit.DTS 7.49GB >> 正文

渔王[中文字幕].The.Fisher.King.1991.1080p.BluRay.x265.10bit.DTS 7.49GB

2021年09月05日 17:16:09     电影发布:来源于网络     电影分类:欧美电影     评论(0)    

渔王[中文字幕].The.Fisher.King.1991.1080p.BluRay.x265.10bit.DTS 7.49GB 奇幻片 喜剧片 剧情片 欧美电影  第1张

◎译 名 渔王 / 天涯沦落两心知(港) / 奇幻城市(台)

◎片 名 The Fisher King

◎年 代 1991

◎产 地 美国

◎类 别 剧情 / 喜剧 / 奇幻

◎语 言 英语

◎上映日期 1991-09-27(美国)

◎IMDb链接 https://www.imdb.com/title/tt0101889/

◎豆瓣评分 7.5/10 (1745人评价)

◎豆瓣链接 https://movie.douban.com/subject/1292909/

◎片 长 137分钟

◎导 演 特瑞·吉列姆 Terry Gilliam (id:1047980)

◎编 剧 理查德·拉·格拉文斯 Richard LaGravenese (id:1040863)

◎演 员 杰夫·布里吉斯 Jeff Bridges (id:1036313)

保罗·隆巴迪 Paul Lombardi (id:1273213)

大卫·海德·皮尔斯 David Hyde Pierce (id:1000151)

特德·罗斯 Ted Ross (id:1141937)

拉拉·哈里斯 Lara Harris (id:1091101)

Frazer Smith Frazer Smith (id:1157251)

梅塞迪丝·鲁尔 Mercedes Ruehl (id:1032042)

凯茜·纳基麦 Kathy Najimy (id:1004668)

哈里·谢尔 Harry Shearer (id:1013923)

梅琳达·库莱亚 Melinda Culea (id:1071561)

杰西·巴托克 Jayce Bartok (id:1032460)

丹·福特曼 Dan Futterman (id:1018070)

罗宾·威廉姆斯 Robin Williams (id:1009241)

布拉德利·格雷格 Bradley Gregg (id:1040753)

William Preston William Preston (id:1132703)

阿尔·法恩 Al Fann (id:1032882)

斯蒂芬·布吉格沃特 Stephen Bridgewater (id:1050503)

阿曼达·普拉莫 Amanda Plummer (id:1000150)

约翰·赫夫南 John Heffernan (id:1018638)

克里斯·豪厄尔 Chris Howell (id:1287011)

迈克尔·杰特 Michael Jeter (id:1049692)

理查德·拉·格拉文斯 Richard LaGravenese (id:1040863)

安妮塔·丹格勒 Anita Dangler (id:1077978)

Mark Bringleson Mark Bringleson (id:1073293)

黛安·罗宾 Diane Robin (id:1139306)

克里斯蒂安·克莱门松 Christian Clemenson (id:1032130)

Joe Jamrog Joe Jamrog (id:1112732)

约翰·德·兰西 John de Lancie (id:1084382)

帕特·弗雷利 Pat Fraley (id:1090728)

梅尔·伯恩 Mel Bourne (id:1042541)

凯文·芬内西 Kevin Fennessy (id:1056010)

Jack Mulcahy Jack Mulcahy (id:1128837)

Peter Austin Noto (id:1271008)

汤姆·威兹 Tom Waits (id:1036356)

琳达·奥布斯特 Lynda Obst (id:1293462)

斯黛西·谢尔 Stacey Sher (id:1297432)

托尼·马可 Tony Mark (id:1291010)

乔治·芬顿 George Fenton (id:1028224)

罗杰·普拉特 Roger Pratt (id:1032441)

莱斯利·沃克 Lesley Walker (id:1300309)

辛迪·卡尔 Cindy Carr (id:1280140)

Beatrix Aruna Pasztor Beatrix Aruna Pasztor (id:1033156)

佐尔坦·埃雷克 Zoltan Elek (id:1283102)

David McGiffert David McGiffert (id:1276278)

肯特·休斯顿 Kent Houston (id:1286980)

◎标 签 美国 / 奇幻 / 1991 / 爱情 / TerryGilliam / 美国电影 / RobinWilliams / 罗宾威廉姆斯

◎简 介

杰克(杰夫·布里吉斯 Jeff Bridges 饰)曾是一名电台主持人,一次意外中,他的不当言辞导致了了一个名为埃德温(克里斯蒂安·克莱门松 Christian Clemenson 饰)的男人精神崩溃举枪乱射,酿成了多人伤亡的惨痛后果,心中充满内疚和痛苦的杰克从此陷入了人生的低谷无法自拔。

杰克结识了名为帕里(罗宾·威廉斯 Robin Williams 饰)的流浪汉,令杰克没有想到的是,竟然是自己造成了帕里的疯疯癫癫。原来,帕里曾是一名学富五车的教授,他的妻子正是埃德温枪下的冤魂,帕里无法承受失去妻子的痛苦,发了疯。为了弥补自己的过失,杰克决定帮助帕里。最终,杰克不仅撮合了帕里和女秘书莉迪亚(阿曼达·普拉莫 Amanda Plummer 饰),还成功的令帕里恢复了理智。

◎获奖情况 (共8项)

第64届奥斯卡金像奖 (1992)

最佳男主角(提名)

└──罗宾·威廉姆斯 (id:1009241)

最佳女配角

└──梅塞迪丝·鲁尔 (id:1032042)

最佳原创剧本(提名)

└──理查德·拉·格拉文斯 (id:1040863)

最佳艺术指导(提名)

最佳原创配乐(提名)

└──乔治·芬顿 (id:1028224)

第48届威尼斯电影节 (1991)

主竞赛单元 金狮奖 (提名)

└──特瑞·吉列姆 (id:1047980)

银狮奖 最佳影片

└──特瑞·吉列姆 (id:1047980)

小金狮奖

└──特瑞·吉列姆 (id:1047980)

  1. ##### MediaInfo ######

  2. General

  3. Unique ID : 74469249660378812414736614018089288061 (0x3806417B2BE47E83820C0162E601017D)

  4. Complete name : The.Fisher.King.1991.1080p.BluRay.x265.10bit.DTS-10017@BBQDDQ.COM.mkv

  5. Format : Matroska

  6. Format version : Version 4

  7. File size : 7.48 GiB

  8. Duration : 2 h 17 min

  9. Overall bit rate : 7 772 kb/s

  10. Movie name : THE FISHER KING

  11. Encoded date : UTC 2021-09-04 05:19:02

  12. Writing application : mkvmerge v61.0.0 ('So') 64-bit

  13. Writing library : libebml v1.4.2 + libmatroska v1.6.4

  14. Cover : Yes

  15. Attachments : cover.jpg


  16. Video

  17. ID : 1

  18. Format : HEVC

  19. Format/Info : High Efficiency Video Coding

  20. Format profile : Main 10@L5@Main

  21. Codec ID : V_MPEGH/ISO/HEVC

  22. Duration : 2 h 17 min

  23. Bit rate : 6 208 kb/s

  24. Width : 1 920 pixels

  25. Height : 1 080 pixels

  26. Display aspect ratio : 16:9

  27. Frame rate mode : Constant

  28. Frame rate : 23.976 (24000/1001/53354) FPS

  29. Color space : YUV

  30. Chroma subsampling : 4:2:0

  31. Bit depth : 10 bits

  32. Bits/(Pixel*Frame) : 0.125

  33. Stream size : 5.98 GiB (80%)

  34. Writing library : x265 3.5+2-g2b25c9ba0+45:[Windows][GCC 10.2.0][64 bit] Yuuki 10bit+8bit+12bit

  35. Encoding settings : rc=crf / crf=23.0000 / qcomp=0.60 / qpstep=4 / stats-write=0 / stats-read=0 / no-lossless / no-cu-lossless / aq-mode=3 / aq-strength=0.90 / cbqpoffs=0 / crqpoffs=0 / ipratio=1.40 / pbratio=1.30 / psy-rd=2.00 / psy-rdoq=0.00 / deblock=0:0 / ref=6 / limit-refs=1 / no-limit-modes / bframes=8 / b-adapt=2 / bframe-bias=0 / b-pyramid / b-intra / weightp / weightb / min-keyint=24 / max-keyint=240 / rc-lookahead=24 / gop-lookahead=0 / NTMzNTQ=uuDQuD2mJt9fsCf / scenecut=40 / hist-scenecut=0 / radl=0 / max-cu-size=64 / min-cu-size=8 / me=3 / subme=7 / merange=48 / rdoq-level=0 / rd=4 / rdpenalty=0 / dynamic-rd=0.00 / no-rd-refine / ----- / cutree / sao / no-rect / no-amp / no-open-gop / wpp / no-pmode / no-pme / no-psnr / no-ssim / nr-intra=0 / nr-inter=0 / no-constrained-intra / no-strong-intra-smoothing / max-tu-size=32 / tu-inter-depth=1 / tu-intra-depth=1 / limit-tu=0 / qg-size=32 / qpmax=69 / qpmin=0 / ----- / cpuid=533541111039 / frame-threads=4 / numa-pools=+ / log-level=2 / input-csp=1 / input-res=1920x1080 / interlace=0 / level-idc=0 / high-tier=1 / uhd-bd=0 / no-allow-non-conformance / no-repeat-headers / aud / no-hrd / info / hash=0 / no-temporal-layers / lookahead-slices=0 / no-splice / no-intra-refresh / no-ssim-rd / signhide / no-tskip / max-merge=3 / temporal-mvp / no-frame-dup / no-hme / no-analyze-src-pics / no-sao-non-deblock / selective-sao=4 / early-skip / rskip / no-fast-intra / no-tskip-fast / no-splitrd-skip / zone-count=0 / no-strict-cbr / no-rc-grain / no-const-vbv / sar=0 / overscan=0 / videoformat=5 / range=0 / colorprim=2 / transfer=2 / colormatrix=2 / chromaloc=0 / display-window=0 / cll=0,0 / min-luma=0 / max-luma=1023 / log2-max-poc-lsb=8 / vui-timing-info / vui-hrd-info / slices=1 / no-opt-qp-pps / no-opt-ref-list-length-pps / no-multi-pass-opt-rps / scenecut-bias=0.05 / hist-threshold=0.03 / no-opt-cu-delta-qp / no-aq-motion / no-hdr10 / no-hdr10-opt / no-dhdr10-opt / no-idr-recovery-sei / analysis-reuse-level=0 / analysis-save-reuse-level=0 / analysis-load-reuse-level=0 / scale-factor=0 / refine-intra=0 / refine-inter=0 / refine-mv=1 / refine-ctu-distortion=0 / no-limit-sao / ctu-info=0 / no-lowpass-dct / refine-analysis-type=0 / copy-pic=1 / max-ausize-factor=1.0 / no-dynamic-refine / no-single-sei / no-hevc-aq / no-svt / no-field / qp-adaptation-range=1.00 / scenecut-aware-qp=0conformance-window-offsets / right=0 / bottom=0 / NTMzNTQ= / decoder-max-rate=0 / no-vbv-live-multi-pass

  36. Default : Yes

  37. Forced : No


  38. Audio

  39. ID : 2

  40. ID in the original source medium : 4352 (0x1100)

  41. Format : DTS

  42. Format/Info : Digital Theater Systems

  43. Codec ID : A_DTS

  44. Duration : 2 h 17 min

  45. Bit rate mode : Constant

  46. Bit rate : 1 509 kb/s

  47. Channel(s) : 6 channels

  48. Channel layout : C L R Ls Rs LFE

  49. Sampling rate : 48.0 kHz

  50. Frame rate : 93.750 FPS (512 SPF)

  51. Bit depth : 24 bits

  52. Compression mode : Lossy

  53. Stream size : 1.45 GiB (19%)

  54. Language : English

  55. Default : Yes

  56. Forced : No

  57. Original source medium : Blu-ray


  58. Text #1

  59. ID : 3

  60. ID in the original source medium : 4609 (0x1201)

  61. Format : PGS

  62. Muxing mode : zlib

  63. Codec ID : S_HDMV/PGS

  64. Codec ID/Info : Picture based subtitle format used on BDs/HD-DVDs

  65. Duration : 2 h 16 min

  66. Bit rate : 38.9 kb/s

  67. Count of elements : 3533

  68. Stream size : 38.0 MiB (0%)

  69. Title : chs&eng

  70. Language : Chinese

  71. Default : Yes

  72. Forced : No

  73. Original source medium : Blu-ray


  74. Text #2

  75. ID : 4

  76. ID in the original source medium : 4610 (0x1202)

  77. Format : PGS

  78. Muxing mode : zlib

  79. Codec ID : S_HDMV/PGS

  80. Codec ID/Info : Picture based subtitle format used on BDs/HD-DVDs

  81. Duration : 2 h 16 min

  82. Bit rate : 25.2 kb/s

  83. Count of elements : 3533

  84. Stream size : 24.6 MiB (0%)

  85. Title : cht&eng

  86. Language : Chinese

  87. Default : No

  88. Forced : No

  89. Original source medium : Blu-ray


  90. Text #3

  91. ID : 5

  92. ID in the original source medium : 4611 (0x1203)

  93. Format : PGS

  94. Muxing mode : zlib

  95. Codec ID : S_HDMV/PGS

  96. Codec ID/Info : Picture based subtitle format used on BDs/HD-DVDs

  97. Duration : 2 h 16 min

  98. Bit rate : 12.1 kb/s

  99. Count of elements : 3533

  100. Stream size : 11.8 MiB (0%)

  101. Title : chs

  102. Language : Chinese

  103. Default : No

  104. Forced : No

  105. Original source medium : Blu-ray


  106. Text #4

  107. ID : 6

  108. ID in the original source medium : 4612 (0x1204)

  109. Format : PGS

  110. Muxing mode : zlib

  111. Codec ID : S_HDMV/PGS

  112. Codec ID/Info : Picture based subtitle format used on BDs/HD-DVDs

  113. Duration : 2 h 16 min

  114. Bit rate : 12.6 kb/s

  115. Count of elements : 3533

  116. Stream size : 12.3 MiB (0%)

  117. Title : cht

  118. Language : Chinese

  119. Default : No

  120. Forced : No

  121. Original source medium : Blu-ray


  122. Text #5

  123. ID : 7

  124. ID in the original source medium : 4608 (0x1200)

  125. Format : PGS

  126. Muxing mode : zlib

  127. Codec ID : S_HDMV/PGS

  128. Codec ID/Info : Picture based subtitle format used on BDs/HD-DVDs

  129. Duration : 2 h 16 min

  130. Bit rate : 59.5 kb/s

  131. Count of elements : 4290

  132. Stream size : 58.2 MiB (1%)

  133. Title : eng

  134. Language : English

  135. Default : No

  136. Forced : No

  137. Original source medium : Blu-ray


  138. Menu

  139. 00:00:00.000 : 第 01 章

  140. 00:05:06.889 : 第 02 章

  141. 00:09:14.470 : 第 03 章

  142. 00:17:26.170 : 第 04 章

  143. 00:22:38.690 : 第 05 章

  144. 00:32:06.716 : 第 06 章

  145. 00:37:58.067 : 第 07 章

  146. 00:42:48.941 : 第 08 章

  147. 00:52:58.383 : 第 09 章

  148. 00:58:02.020 : 第 10 章

  149. 01:04:46.591 : 第 11 章

  150. 01:12:11.118 : 第 12 章

  151. 01:19:23.133 : 第 13 章

  152. 01:26:18.715 : 第 14 章

  153. 01:33:35.443 : 第 15 章

  154. 01:42:21.802 : 第 16 章

  155. 01:51:01.237 : 第 17 章

  156. 02:00:03.988 : 第 18 章

  157. 02:06:04.056 : 第 19 章

  158. 02:12:48.877 : 第 20 章


文件下载


除非特别注明,本文『渔王[中文字幕].The.Fisher.King.1991.1080p.BluRay.x265.10bit.DTS 7.49GB』来源于互联网机器人自动抓取,非本站原创。 浮游电影网不对本文拥有版权,如有侵犯,请联系邮箱:fuyouu#yandex.com[#换成@]投诉。我们会在15个工作日内删除。 但烦请转载时请标明出处:“本文转载于『浮游电影网』,原文地址:https://5.189.174.242/14191.html

评论吧骚年!

发表你的见解   

昵称*

E-mail*(建议输入,以便收到博主回复的提示邮件)

验证码*

您可以使用eMule或eMule Mod(Windows)、aMule(Win、Linux、Mac)等软件下载eD2k链接。。
eMule收藏集(.emulecollection)文件是您选中的所有链接的列表文件。eMule可以直接下载它们。
按住SHIFT键选择可以选中多个选择框。
可用文件名和大小选择器来选择文件。
文件名选择器帮您根据文件名称或后缀来选择文件。不分大小写。
符号使用:
和:空格( )、+
不包含:-
或:|
转义:一对英文引号("");
匹配开头:^
匹配结尾:$
例如:
选中所有名称中包含有“eMule”或“0.49c”字眼,但不包含有“exe”字眼的:emule|0.49c -exe
选中所有名称的开头是“eMule”,结尾是“0.49c”的:^emule 0.49c$
选中所有名称中带有“eMule 0.49c”的(必须是“eMule 0.49c”,中间没有别的字符,不能是“eMule fake 0.49c”),需要转义:"emule 0.49c"
大小选择器帮您根据文件大小选择文件。