当前位置: 首页 >> 欧美电影 >> 终极执行令[中文字幕].The.Big.Fix.1978.1080p.BluRay.x265.10bit.FLAC.1.0 9.23GB >> 正文

终极执行令[中文字幕].The.Big.Fix.1978.1080p.BluRay.x265.10bit.FLAC.1.0 9.23GB

2021年09月05日 17:08:45     电影发布:来源于网络     电影分类:欧美电影     评论(0)    

终极执行令[中文字幕].The.Big.Fix.1978.1080p.BluRay.x265.10bit.FLAC.1.0 9.23GB 悬疑片 惊悚片 喜剧片 欧美电影  第1张

◎译 名 终极执行令 / 大贿赂

◎片 名 The Big Fix

◎年 代 1978

◎产 地 美国

◎类 别 喜剧 / 悬疑 / 惊悚

◎语 言 英语

◎上映日期 1978-10-06

◎IMDb链接 https://www.imdb.com/title/tt0077233/

◎豆瓣链接 https://movie.douban.com/subject/1299264/

◎片 长 108 分钟

◎导 演 杰里米·卡根 Jeremy Kagan (id:1111461)

◎编 剧 罗杰·西蒙 Roger L. Simon (id:1042173)

◎演 员 理查德·德莱福斯 Richard Dreyfuss (id:1041114)

邦妮·比蒂丽娅 Bonnie Bedelia (id:1000149)

约翰·利思戈 John Lithgow (id:1027824)

奥费莉娅·梅迪纳 Ofelia Medina (id:1118438)

丽塔·卡琳 Rita Karin (id:1107960)

Michael Hershewe Michael Hershewe (id:1100945)

David Matthau David Matthau (id:1121843)

露贝·安缇维洛 Lupe Ontiveros (id:1127091)

弗里茨·韦弗 Fritz Weaver (id:1161507)

Joe Warfield Joe Warfield (id:1169167)

大卫·罗兰兹 David Rowlands (id:1250669)

小豪尔赫·塞韦拉 Jorge Cervera Jr. (id:1280364)

Gregory Prentiss Gregory Prentiss (id:1294863)

Martin Garner Martin Garner (id:1095247)

凯瑟琳格罗迪 Kathryn Grody (id:1094747)

高美以子 Miiko Taka (id:1023196)

大卫·盖尔 David Gale (id:1028215)

曼迪·帕廷金 Mandy Patinkin (id:1036380)

拉瑞·比肖普 Larry Bishop (id:1036705)

朗·瑞弗金 Ron Rifkin (id:1041191)

Murray MacLeod Murray MacLeod (id:1051036)

苏珊·安斯波 Susan Anspach (id:1054796)

F·默里·亚伯拉罕 F. Murray Abraham (id:1055073)

Willie Covan Willie Covan (id:1067997)

西德尼·克鲁特 Sidney Clute (id:1075008)

哈利·凯撒 Harry Caesar (id:1075856)

尼古拉斯·科斯特 Nicolas Coster (id:1076219)

Fred Franklyn Fred Franklyn (id:1089372)

Danny Gellis Danny Gellis (id:1091200)

约翰·库宁汉姆 John Cunningham (id:1010765)

理查德·德莱福斯 Richard Dreyfuss (id:1041114)

比尔·康堤 Bill Conti (id:1002860)

Frank Stanley Frank Stanley (id:1048605)

Patrick Kennedy Patrick Kennedy (id:1288400)

迈克·芬顿 Mike Fenton (id:1283570)

罗伯特·波义耳 Robert F. Boyle (id:1028433)

Mary Ann Biddle Mary Ann Biddle (id:1278602)

伊迪丝·海德 Edith Head (id:1041085)

Charles H. Schram Charles H. Schram (id:1146198)

Leonard Drake Leonard Drake (id:1282701)

Alan Friedman Alan Friedman (id:1284210)

Robert Latham Brown Robert Latham Brown (id:1020047)

◎标 签 1978 / 1970s / 萌盘 / 美国

◎简 介

An ex-'60s radical now working as a private eye is hired by an old flame to investigate a political smear campaign. The case becomes more dangerous as it unfolds.

  1. ##### MediaInfo ######

  2. General

  3. Unique ID : 95788475363688537026402923063195216316 (0x4810307629887C049215D30D8B5829BC)

  4. Complete name : The.Big.Fix.1978.1080p.BluRay.x265.10bit.FLAC.1.0-10017@BBQDDQ.COM.mkv

  5. Format : Matroska

  6. Format version : Version 4

  7. File size : 9.23 GiB

  8. Duration : 1 h 47 min

  9. Overall bit rate mode : Variable

  10. Overall bit rate : 12.3 Mb/s

  11. Encoded date : UTC 2021-09-03 10:45:30

  12. Writing application : mkvmerge v61.0.0 ('So') 64-bit

  13. Writing library : libebml v1.4.2 + libmatroska v1.6.4


  14. Video

  15. ID : 1

  16. Format : HEVC

  17. Format/Info : High Efficiency Video Coding

  18. Format profile : Main 10@L5@Main

  19. Codec ID : V_MPEGH/ISO/HEVC

  20. Duration : 1 h 47 min

  21. Bit rate : 11.5 Mb/s

  22. Width : 1 916 pixels

  23. Height : 1 040 pixels

  24. Display aspect ratio : 1.85:1

  25. Frame rate mode : Constant

  26. Frame rate : 23.976 (24000/1001/53354) FPS

  27. Color space : YUV

  28. Chroma subsampling : 4:2:0

  29. Bit depth : 10 bits

  30. Bits/(Pixel*Frame) : 0.241

  31. Stream size : 8.66 GiB (94%)

  32. Writing library : x265 3.5+2-g2b25c9ba0+45:[Windows][GCC 10.2.0][64 bit] Yuuki 10bit+8bit+12bit

  33. Encoding settings : rc=crf / crf=21.5000 / qcomp=0.70 / qpstep=4 / stats-write=0 / stats-read=0 / no-lossless / no-cu-lossless / aq-mode=3 / aq-strength=0.70 / cbqpoffs=0 / crqpoffs=0 / ipratio=1.40 / pbratio=1.30 / psy-rd=2.00 / psy-rdoq=0.00 / deblock=0:0 / ref=6 / limit-refs=1 / no-limit-modes / bframes=8 / b-adapt=2 / bframe-bias=0 / b-pyramid / b-intra / weightp / weightb / min-keyint=24 / max-keyint=240 / rc-lookahead=24 / gop-lookahead=0 / NTMzNTQ=uuDQuD2mJt9fsCf / scenecut=40 / hist-scenecut=0 / radl=0 / max-cu-size=64 / min-cu-size=8 / me=3 / subme=7 / merange=48 / rdoq-level=0 / rd=4 / rdpenalty=0 / dynamic-rd=0.00 / no-rd-refine / ----- / cutree / sao / no-rect / no-amp / no-open-gop / wpp / no-pmode / pme / no-psnr / no-ssim / nr-intra=0 / nr-inter=0 / no-constrained-intra / no-strong-intra-smoothing / max-tu-size=32 / tu-inter-depth=1 / tu-intra-depth=1 / limit-tu=0 / qg-size=32 / qpmax=69 / qpmin=0 / ----- / cpuid=533541111039 / frame-threads=4 / numa-pools=+ / log-level=2 / input-csp=1 / input-res=1916x1040 / interlace=0 / level-idc=0 / high-tier=1 / uhd-bd=0 / no-allow-non-conformance / no-repeat-headers / aud / no-hrd / info / hash=0 / no-temporal-layers / lookahead-slices=0 / no-splice / no-intra-refresh / no-ssim-rd / signhide / no-tskip / max-merge=3 / temporal-mvp / no-frame-dup / no-hme / no-analyze-src-pics / no-sao-non-deblock / selective-sao=4 / early-skip / rskip / no-fast-intra / no-tskip-fast / no-splitrd-skip / zone-count=0 / no-strict-cbr / no-rc-grain / no-const-vbv / sar=0 / overscan=0 / videoformat=5 / range=0 / colorprim=2 / transfer=2 / colormatrix=2 / chromaloc=0 / display-window=0 / cll=0,0 / min-luma=0 / max-luma=1023 / log2-max-poc-lsb=8 / vui-timing-info / vui-hrd-info / slices=1 / no-opt-qp-pps / no-opt-ref-list-length-pps / no-multi-pass-opt-rps / scenecut-bias=0.05 / hist-threshold=0.03 / no-opt-cu-delta-qp / no-aq-motion / no-hdr10 / no-hdr10-opt / no-dhdr10-opt / no-idr-recovery-sei / analysis-reuse-level=0 / analysis-save-reuse-level=0 / analysis-load-reuse-level=0 / scale-factor=0 / refine-intra=0 / refine-inter=0 / refine-mv=1 / refine-ctu-distortion=0 / no-limit-sao / ctu-info=0 / no-lowpass-dct / refine-analysis-type=0 / copy-pic=1 / max-ausize-factor=1.0 / no-dynamic-refine / no-single-sei / no-hevc-aq / no-svt / no-field / qp-adaptation-range=1.00 / scenecut-aware-qp=0conformance-window-offsets / right=0 / bottom=0 / NTMzNTQ= / decoder-max-rate=0 / no-vbv-live-multi-pass

  34. Default : Yes

  35. Forced : No


  36. Audio

  37. ID : 2

  38. Format : FLAC

  39. Format/Info : Free Lossless Audio Codec

  40. Codec ID : A_FLAC

  41. Duration : 1 h 47 min

  42. Bit rate mode : Variable

  43. Bit rate : 652 kb/s

  44. Channel(s) : 1 channel

  45. Channel layout : C

  46. Sampling rate : 48.0 kHz

  47. Frame rate : 11.719 FPS (4096 SPF)

  48. Bit depth : 24 bits

  49. Compression mode : Lossless

  50. Stream size : 503 MiB (5%)

  51. Writing library : libFLAC 1.2.1 (UTC 2007-09-17)

  52. Language : English

  53. Default : Yes

  54. Forced : No


  55. Text #1

  56. ID : 3

  57. ID in the original source medium : 4609 (0x1201)

  58. Format : PGS

  59. Muxing mode : zlib

  60. Codec ID : S_HDMV/PGS

  61. Codec ID/Info : Picture based subtitle format used on BDs/HD-DVDs

  62. Duration : 1 h 45 min

  63. Bit rate : 59.5 kb/s

  64. Count of elements : 3471

  65. Stream size : 45.0 MiB (0%)

  66. Title : chs&eng

  67. Language : Chinese

  68. Default : Yes

  69. Forced : No

  70. Original source medium : Blu-ray


  71. Text #2

  72. ID : 4

  73. ID in the original source medium : 4610 (0x1202)

  74. Format : PGS

  75. Muxing mode : zlib

  76. Codec ID : S_HDMV/PGS

  77. Codec ID/Info : Picture based subtitle format used on BDs/HD-DVDs

  78. Duration : 1 h 45 min

  79. Bit rate : 59.9 kb/s

  80. Count of elements : 3471

  81. Stream size : 45.4 MiB (0%)

  82. Title : cht&eng

  83. Language : Chinese

  84. Default : No

  85. Forced : No

  86. Original source medium : Blu-ray


  87. Text #3

  88. ID : 5

  89. ID in the original source medium : 4611 (0x1203)

  90. Format : PGS

  91. Muxing mode : zlib

  92. Codec ID : S_HDMV/PGS

  93. Codec ID/Info : Picture based subtitle format used on BDs/HD-DVDs

  94. Duration : 1 h 45 min

  95. Bit rate : 34.8 kb/s

  96. Count of elements : 3471

  97. Stream size : 26.4 MiB (0%)

  98. Title : chs

  99. Language : Chinese

  100. Default : No

  101. Forced : No

  102. Original source medium : Blu-ray


  103. Text #4

  104. ID : 6

  105. ID in the original source medium : 4612 (0x1204)

  106. Format : PGS

  107. Muxing mode : zlib

  108. Codec ID : S_HDMV/PGS

  109. Codec ID/Info : Picture based subtitle format used on BDs/HD-DVDs

  110. Duration : 1 h 45 min

  111. Bit rate : 35.3 kb/s

  112. Count of elements : 3471

  113. Stream size : 26.7 MiB (0%)

  114. Title : cht

  115. Language : Chinese

  116. Default : No

  117. Forced : No

  118. Original source medium : Blu-ray


  119. Text #5

  120. ID : 7

  121. ID in the original source medium : 4608 (0x1200)

  122. Format : PGS

  123. Muxing mode : zlib

  124. Codec ID : S_HDMV/PGS

  125. Codec ID/Info : Picture based subtitle format used on BDs/HD-DVDs

  126. Duration : 1 h 47 min

  127. Bit rate : 53.8 kb/s

  128. Count of elements : 3806

  129. Stream size : 41.2 MiB (0%)

  130. Title : eng

  131. Language : English

  132. Default : No

  133. Forced : No

  134. Original source medium : Blu-ray


  135. Menu

  136. 00:00:00.000 : Chapter 01

  137. 00:07:58.561 : Chapter 02

  138. 00:20:36.818 : Chapter 03

  139. 00:29:26.806 : Chapter 04

  140. 00:38:53.456 : Chapter 05

  141. 00:50:40.203 : Chapter 06

  142. 00:55:55.894 : Chapter 07

  143. 01:02:27.660 : Chapter 08

  144. 01:11:49.346 : Chapter 09

  145. 01:17:20.218 : Chapter 10

  146. 01:22:09.507 : Chapter 11

  147. 01:32:13.736 : Chapter 12

  148. 01:40:55.424 : Chapter 13


文件下载


除非特别注明,本文『终极执行令[中文字幕].The.Big.Fix.1978.1080p.BluRay.x265.10bit.FLAC.1.0 9.23GB』来源于互联网机器人自动抓取,非本站原创。 浮游电影网不对本文拥有版权,如有侵犯,请联系邮箱:fuyouu#yandex.com[#换成@]投诉。我们会在15个工作日内删除。 但烦请转载时请标明出处:“本文转载于『浮游电影网』,原文地址:https://www.fuyouu.com/14186.html

评论吧骚年!

发表你的见解   

昵称*

E-mail*(建议输入,以便收到博主回复的提示邮件)

验证码*

您可以使用eMule或eMule Mod(Windows)、aMule(Win、Linux、Mac)等软件下载eD2k链接。。
eMule收藏集(.emulecollection)文件是您选中的所有链接的列表文件。eMule可以直接下载它们。
按住SHIFT键选择可以选中多个选择框。
可用文件名和大小选择器来选择文件。
文件名选择器帮您根据文件名称或后缀来选择文件。不分大小写。
符号使用:
和:空格( )、+
不包含:-
或:|
转义:一对英文引号("");
匹配开头:^
匹配结尾:$
例如:
选中所有名称中包含有“eMule”或“0.49c”字眼,但不包含有“exe”字眼的:emule|0.49c -exe
选中所有名称的开头是“eMule”,结尾是“0.49c”的:^emule 0.49c$
选中所有名称中带有“eMule 0.49c”的(必须是“eMule 0.49c”,中间没有别的字符,不能是“eMule fake 0.49c”),需要转义:"emule 0.49c"
大小选择器帮您根据文件大小选择文件。