当前位置: 首页 >> 日韩电影 >> 老千[中文字幕].The.War.of.Flower.2006.1080p.BluRay.x265.10bit.DD5.1.MNHD 7.36GB >> 正文

老千[中文字幕].The.War.of.Flower.2006.1080p.BluRay.x265.10bit.DD5.1.MNHD 7.36GB

2021年09月04日 10:02:13     电影发布:来源于网络     电影分类:日韩电影     评论(0)    

老千[中文字幕].The.War.of.Flower.2006.1080p.BluRay.x265.10bit.DD5.1.MNHD 7.36GB 犯罪片 剧情片 日韩电影  第1张

◎译 名 老千 / 泰沙大豪客(港) / The War of Flower / Tazza: the High Rollers

◎片 名 ??

◎年 代 2006

◎产 地 韩国

◎类 别 剧情 / 犯罪

◎语 言 韩语

◎上映日期 2006-09-28

◎IMDb链接 https://www.imdb.com/title/tt0875025/

◎豆瓣评分 7.6/10 (42363人评价)

◎豆瓣链接 https://movie.douban.com/subject/1915180/

◎片 长 139 分钟

◎导 演 崔东勋 Dong-hoon Choi (id:1307614)

◎编 剧 崔东勋 Dong-hoon Choi (id:1307614)

◎演 员 曹承佑 Seung-woo Cho (id:1005435)

金惠秀 Hye-soo Kim (id:1050699)

白润植 Yun-shik Baek (id:1033487)

柳海真 Hae-jin Yu (id:1312810)

李水京 Soo-kyeong Lee (id:1275525)

金应洙 Eung-soo Kim (id:1330953)

金允石 Yoon-suk Kim (id:1310942)

崔东勋 Dong-hoon Choi (id:1307614)

尹雪喜 Sul-hee Yoon (id:1349272)

金相浩 Sang-ho Kim (id:1314928)

郑仁基 In-gi Jeong (id:1320459)

金贞兰 Jeong-nan Kim (id:1320363)

朱进模 Jin-mo Ju (id:1334676)

崔松贤 Song-hyun Choi (id:1316402)

林贞恩 Jeong-eun Lim (id:1322228)

南贤珠 Hyun-joo Nam (id:1399890)

朴明申 Myung-shin Park (id:1381298)

金敏京 Min-kyung Kim (id:1381286)

洪京妍 Kyeong-yeon Hong (id:1384277)

权泰元 Tae-won Kwon (id:1374616)

崔在燮 Choi Jae-sup (id:1390293)

金振穆 Kim Jin-muk (id:1390372)

崔钟律 Jong-ryeol Choi (id:1395341)

金敬益 Kyung-ik Kim (id:1382166)

张领圭 Young-gyu Jang (id:1329974)

崔永桓 Yeong-hwan Choi (id:1280703)

申敏静 Min-kyeong Shin (id:1305726)

李庸基 Yong-Gi Lee (id:1314650)

金志映 Jee-young Kim (id:1331104)

◎标 签 韩国 / 犯罪 / 韩国电影 / 赌片 / 老千 / 剧情 / 曹承佑 / 金惠秀

◎简 介

辛苦打工赚钱的高尼(曹承佑饰)工资低微,但性格好强的他不甘于贫穷。有一天,他输光了所有的钱,发现被老千所耍。气愤的他去理论,遇到了老千高手平京长(白润植饰),为了学到高超的赌术,高尼费尽心思拜平京长为师,并保证赢回一定数额就洗手不干。

终于,学有所成的高尼出山后,开始了老千生涯。最初他是想把输掉的钱赢回来,但是人的欲望是没有止境的,他违背了当初许下的承诺,同时他的出色赌技引起了美女郑老板(金惠秀饰)的赏识,并与另一位老千开始了合作。一轮又一轮的赌局中,高尼迎来了生死之战。

◎获奖情况 (共1项)

第1届亚洲电影大奖 (2007)

最佳女主角(提名)

└──金惠秀 (id:1050699)

  1. ##### MediaInfo ######

  2. General

  3. Unique ID : 243945292614062540198911329238085988178 (0xB7862785B1E7D46C57EF2C5E9462EF52)

  4. Complete name : The.War.of.Flower.2006.1080p.BluRay.x265.10bit.DD5.1.MNHD-10018@BBQDDQ.COM.mkv

  5. Format : Matroska

  6. Format version : Version 4

  7. File size : 7.36 GiB

  8. Duration : 2 h 20 min

  9. Overall bit rate : 7 507 kb/s

  10. Movie name : The War of Flower 2006 1080p BluRay x265 10bit DD5.1 MNHD FRDS

  11. Encoded date : UTC 2021-09-03 12:13:07

  12. Writing application : mkvmerge v53.0.0 ('Fool's Gold') 64-bit

  13. Writing library : libebml v1.4.1 + libmatroska v1.6.2


  14. Video

  15. ID : 1

  16. Format : HEVC

  17. Format/Info : High Efficiency Video Coding

  18. Format profile : Main 10@L5.1@High

  19. Codec ID : V_MPEGH/ISO/HEVC

  20. Duration : 2 h 20 min

  21. Bit rate : 6 803 kb/s

  22. Width : 1 894 pixels

  23. Height : 820 pixels

  24. Display aspect ratio : 2.35:1

  25. Frame rate mode : Constant

  26. Frame rate : 23.976 (24000/1001/53354) FPS

  27. Color space : YUV

  28. Chroma subsampling : 4:2:0

  29. Bit depth : 10 bits

  30. Bits/(Pixel*Frame) : 0.183

  31. Stream size : 6.67 GiB (91%)

  32. Writing library : x265 3.5+1-f0c1022b6:[Linux][GCC 9.3.0][64 bit] 10bit

  33. Encoding settings : cpuid=533541111039 / frame-threads=3 / numa-pools=11 / wpp / pmode / no-pme / no-psnr / no-ssim / log-level=2 / input-csp=1 / input-res=1894x820 / interlace=0 / total-frames=201831 / level-idc=0 / high-tier=1 / uhd-bd=0 / ref=4 / no-allow-non-conformance / no-repeat-headers / annexb / no-aud / no-hrd / info / hash=0 / no-temporal-layers / no-open-gop / min-keyint=1 / keyint=250 / gop-lookahead=0 / bframes=6 / b-adapt=2 / b-pyramid / bframe-bias=0 / rc-lookahead=80 / lookahead-slices=0 / NTMzNTQ=uuDQuD2mJt9fsCf / scenecut=40 / hist-scenecut=0 / radl=0 / no-splice / no-intra-refresh / ctu=32 / min-cu-size=8 / no-rect / no-amp / max-tu-size=32 / tu-inter-depth=4 / tu-intra-depth=4 / limit-tu=0 / rdoq-level=2 / dynamic-rd=0.00 / no-ssim-rd / signhide / no-tskip / nr-intra=0 / nr-inter=0 / no-constrained-intra / strong-intra-smoothing / max-merge=5 / limit-refs=0 / no-limit-modes / me=3 / subme=7 / merange=57 / temporal-mvp / no-frame-dup / no-hme / weightp / weightb / no-analyze-src-pics / deblock=-3:-3 / no-sao / no-sao-non-deblock / rd=4 / selective-sao=0 / no-early-skip / no-rskip / no-fast-intra / no-tskip-fast / no-cu-lossless / b-intra / no-splitrd-skip / rdpenalty=0 / psy-rd=1.50 / psy-rdoq=1.00 / no-rd-refine / no-lossless / cbqpoffs=-2 / crqpoffs=-2 / rc=crf / crf=21.4 / qcomp=0.65 / qpstep=4 / stats-write=0 / stats-read=0 / vbv-maxrate=160000 / vbv-bufsize=160000 / vbv-init=0.9 / min-vbv-fullness=50.0 / max-vbv-fullness=80.0 / crf-max=0.0 / crf-min=0.0 / ipratio=1.30 / pbratio=1.20 / aq-mode=1 / aq-strength=1.00 / no-cutree / zone-count=0 / no-strict-cbr / qg-size=8 / no-rc-grain / qpmax=69 / qpmin=0 / no-const-vbv / sar=0 / overscan=0 / videoformat=5 / range=0 / colorprim=1 / transfer=1 / colormatrix=1 / chromaloc=0 / display-window=0 / cll=0,0 / min-luma=0 / max-luma=1023 / log2-max-poc-lsb=8 / vui-timing-info / vui-hrd-info / slices=1 / no-opt-qp-pps / no-opt-ref-list-length-pps / no-multi-pass-opt-rps / scenecut-bias=0.05 / hist-threshold=0.03 / no-opt-cu-delta-qp / no-aq-motion / no-hdr10 / no-hdr10-opt / no-dhdr10-opt / no-idr-recovery-sei / analysis-reuse-level=0 / analysis-save-reuse-level=0 / analysis-load-reuse-level=0 / scale-factor=0 / refine-intra=0 / refine-inter=0 / refine-mv=1 / refine-ctu-distortion=0 / no-limit-sao / ctu-info=0 / no-lowpass-dct / refine-analysis-type=0 / copy-pic=1 / max-ausize-factor=1.0 / no-dynamic-refine / no-single-sei / no-hevc-aq / no-svt / no-field / qp-adaptation-range=1.00 / scenecut-aware-qp=0conformance-window-offsets / right=0 / bottom=0 / NTMzNTQ= / decoder-max-rate=0 / no-vbv-live-multi-pass

  34. Default : Yes

  35. Forced : No

  36. Color range : Limited

  37. Color primaries : BT.709

  38. Transfer characteristics : BT.709

  39. Matrix coefficients : BT.709


  40. Audio

  41. ID : 2

  42. Format : AC-3

  43. Format/Info : Audio Coding 3

  44. Commercial name : Dolby Digital

  45. Codec ID : A_AC3

  46. Duration : 2 h 20 min

  47. Bit rate mode : Constant

  48. Bit rate : 640 kb/s

  49. Channel(s) : 6 channels

  50. Channel layout : L R C LFE Ls Rs

  51. Sampling rate : 48.0 kHz

  52. Frame rate : 31.250 FPS (1536 SPF)

  53. Compression mode : Lossy

  54. Stream size : 642 MiB (9%)

  55. Language : Korean

  56. Service kind : Complete Main

  57. Default : Yes

  58. Forced : No


  59. Text #1

  60. ID : 3

  61. Format : PGS

  62. Muxing mode : zlib

  63. Codec ID : S_HDMV/PGS

  64. Codec ID/Info : Picture based subtitle format used on BDs/HD-DVDs

  65. Duration : 2 h 15 min

  66. Bit rate : 40.6 kb/s

  67. Count of elements : 3730

  68. Stream size : 39.3 MiB (1%)

  69. Title : Chs

  70. Language : Chinese

  71. Default : Yes

  72. Forced : No


  73. Text #2

  74. ID : 4

  75. Format : PGS

  76. Muxing mode : zlib

  77. Codec ID : S_HDMV/PGS

  78. Codec ID/Info : Picture based subtitle format used on BDs/HD-DVDs

  79. Duration : 2 h 15 min

  80. Bit rate : 41.6 kb/s

  81. Count of elements : 3730

  82. Stream size : 40.3 MiB (1%)

  83. Title : Cht

  84. Language : Chinese

  85. Default : No

  86. Forced : No


  87. Text #3

  88. ID : 5

  89. Format : PGS

  90. Muxing mode : zlib

  91. Codec ID : S_HDMV/PGS

  92. Codec ID/Info : Picture based subtitle format used on BDs/HD-DVDs

  93. Duration : 2 h 15 min

  94. Bit rate : 27.3 kb/s

  95. Count of elements : 3924

  96. Stream size : 26.4 MiB (0%)

  97. Title : Kor

  98. Language : Korean

  99. Default : No

  100. Forced : No


  101. Text #4

  102. ID : 6

  103. Format : PGS

  104. Muxing mode : zlib

  105. Codec ID : S_HDMV/PGS

  106. Codec ID/Info : Picture based subtitle format used on BDs/HD-DVDs

  107. Duration : 2 h 15 min

  108. Bit rate : 26.9 kb/s

  109. Count of elements : 3898

  110. Stream size : 26.1 MiB (0%)

  111. Title : Eng

  112. Language : English

  113. Default : No

  114. Forced : No


  115. Menu

  116. 00:00:00.000 : en:Chapter 01

  117. 00:03:43.348 : en:Chapter 02

  118. 00:11:51.502 : en:Chapter 03

  119. 00:14:47.095 : en:Chapter 04

  120. 00:20:38.320 : en:Chapter 05

  121. 00:23:10.139 : en:Chapter 06

  122. 00:28:20.949 : en:Chapter 07

  123. 00:32:31.074 : en:Chapter 08

  124. 00:35:49.773 : en:Chapter 09

  125. 00:41:11.552 : en:Chapter 10

  126. 00:44:38.718 : en:Chapter 11

  127. 00:48:11.847 : en:Chapter 12

  128. 00:54:26.680 : en:Chapter 13

  129. 00:56:55.412 : en:Chapter 14

  130. 01:02:34.501 : en:Chapter 15

  131. 01:06:07.130 : en:Chapter 16

  132. 01:10:36.649 : en:Chapter 17

  133. 01:15:14.802 : en:Chapter 18

  134. 01:18:59.568 : en:Chapter 19

  135. 01:26:37.943 : en:Chapter 20

  136. 01:30:11.489 : en:Chapter 21

  137. 01:37:17.331 : en:Chapter 22

  138. 01:43:25.991 : en:Chapter 23

  139. 01:48:22.913 : en:Chapter 24

  140. 01:51:38.734 : en:Chapter 25

  141. 01:55:57.159 : en:Chapter 26

  142. 02:00:43.236 : en:Chapter 27

  143. 02:11:06.901 : en:Chapter 28

  144. 02:16:53.414 : en:Chapter 29



文件下载


除非特别注明,本文『老千[中文字幕].The.War.of.Flower.2006.1080p.BluRay.x265.10bit.DD5.1.MNHD 7.36GB』来源于互联网机器人自动抓取,非本站原创。 浮游电影网不对本文拥有版权,如有侵犯,请联系邮箱:fuyouu#yandex.com[#换成@]投诉。我们会在15个工作日内删除。 但烦请转载时请标明出处:“本文转载于『浮游电影网』,原文地址:https://www.fuyouu.com/14180.html

评论吧骚年!

发表你的见解   

昵称*

E-mail*(建议输入,以便收到博主回复的提示邮件)

验证码*

您可以使用eMule或eMule Mod(Windows)、aMule(Win、Linux、Mac)等软件下载eD2k链接。。
eMule收藏集(.emulecollection)文件是您选中的所有链接的列表文件。eMule可以直接下载它们。
按住SHIFT键选择可以选中多个选择框。
可用文件名和大小选择器来选择文件。
文件名选择器帮您根据文件名称或后缀来选择文件。不分大小写。
符号使用:
和:空格( )、+
不包含:-
或:|
转义:一对英文引号("");
匹配开头:^
匹配结尾:$
例如:
选中所有名称中包含有“eMule”或“0.49c”字眼,但不包含有“exe”字眼的:emule|0.49c -exe
选中所有名称的开头是“eMule”,结尾是“0.49c”的:^emule 0.49c$
选中所有名称中带有“eMule 0.49c”的(必须是“eMule 0.49c”,中间没有别的字符,不能是“eMule fake 0.49c”),需要转义:"emule 0.49c"
大小选择器帮您根据文件大小选择文件。