当前位置: 首页 >> 国产电影 >> 重启地球[国语配音/中文字幕].Restart.the.Earth.2021.1080p.WEB-DL.H264.AAC 1.44GB >> 正文

重启地球[国语配音/中文字幕].Restart.the.Earth.2021.1080p.WEB-DL.H264.AAC 1.44GB

2021年09月04日 10:00:54     电影发布:来源于网络     电影分类:国产电影     评论(0)    

重启地球[国语配音/中文字幕].Restart.the.Earth.2021.1080p.WEB DL.H264.AAC 1.44GB 科幻片 剧情片 国产电影  第1张

◎译 名 重启地球 / 大灾变

◎年 代 2021

◎产 地 中国大陆

◎类 别 剧情 / 科幻

◎语 言 汉语普通话

◎上映日期 2021-09-03(中国大陆网络)

◎IMDb链接 https://www.imdb.com/title//

◎豆瓣链接 https://movie.douban.com/subject/35411088/

◎片 长 90分钟

◎导 演 林珍钊 Zhenzhao Lin (id:1370100)

◎编 剧 张圣帆 Shengfan Zhang (id:1410951)

◎演 员 何晟铭 Shengming He (id:1313000)

罗米 Mi Luo (id:1365997)

叶璇 Michelle Ye (id:1005537)

于荣光 Ringo Yu (id:1274556)

◎标 签 科幻 / 电影 / 比较喜欢科幻的电影 / 中国大陆 / 好看觉得 / 2021 / 好 / 影人

◎简 介

《重启地球》讲述发生在真实环境中,一群真实的人,他们在末日自救中的真情流露,重点刻画一个普通家庭中的父女关系。影片同时饱含着特别中国化的价值观,比如人定胜天,有坚忍和努力,有牺牲和奉献,众人一起战胜史无前例的灾难。

  1. ##### MediaInfo ######

  2. General

  3. Complete name : 重启地球.Restart.the.Earth.2021.1080p.WEB-DL.H264.AAC-10006@BBQDDQ.COM.mp4

  4. Format : MPEG-4

  5. Format profile : Base Media

  6. Codec ID : isom (isom/iso2/avc1/mp41)

  7. File size : 1.44 GiB

  8. Duration : 1 h 29 min

  9. Overall bit rate mode : Variable

  10. Overall bit rate : 2 317 kb/s

  11. Writing application : OurTV Media Encoder


  12. Video

  13. ID : 1

  14. Format : AVC

  15. Format/Info : Advanced Video Codec

  16. Format profile : High@L4

  17. Format settings : CABAC / 4 Ref Frames

  18. Format settings, CABAC : Yes

  19. Format settings, Reference frames : 4 frames

  20. Codec ID : avc1

  21. Codec ID/Info : Advanced Video Coding

  22. Duration : 1 h 29 min

  23. Bit rate : 2 217 kb/s

  24. Width : 1 920 pixels

  25. Height : 720 pixels

  26. Display aspect ratio : 2.667

  27. Frame rate mode : Variable

  28. Frame rate : 25.000 FPS

  29. Minimum frame rate : 24.993 FPS

  30. Maximum frame rate : 25.007 FPS

  31. Color space : YUV

  32. Chroma subsampling : 4:2:0

  33. Bit depth : 8 bits

  34. Scan type : Progressive

  35. Bits/(Pixel*Frame) : 0.064

  36. Stream size : 1.38 GiB (96%)

  37. Writing library : ptw-1.0.134 rcm-adapt vs-93 vwk

  38. Color range : Limited

  39. Color primaries : BT.709

  40. Matrix coefficients : BT.709

  41. Codec configuration box : avcC


  42. Audio

  43. ID : 2

  44. Format : AAC LC

  45. Format/Info : Advanced Audio Codec Low Complexity

  46. Codec ID : mp4a-40-2

  47. Duration : 1 h 29 min

  48. Bit rate mode : Variable

  49. Bit rate : 93.4 kb/s

  50. Maximum bit rate : 97.1 kb/s

  51. Channel(s) : 2 channels

  52. Channel layout : L R

  53. Sampling rate : 48.0 kHz

  54. Frame rate : 46.875 FPS (1024 SPF)

  55. Compression mode : Lossy

  56. Stream size : 59.5 MiB (4%)

  57. Default : Yes

  58. Alternate group : 1



文件下载


除非特别注明,本文『重启地球[国语配音/中文字幕].Restart.the.Earth.2021.1080p.WEB-DL.H264.AAC 1.44GB』来源于互联网机器人自动抓取,非本站原创。 浮游电影网不对本文拥有版权,如有侵犯,请联系邮箱:fuyouu#yandex.com[#换成@]投诉。我们会在15个工作日内删除。 但烦请转载时请标明出处:“本文转载于『浮游电影网』,原文地址:https://www.fuyouu.com/14179.html

评论吧骚年!

发表你的见解   

昵称*

E-mail*(建议输入,以便收到博主回复的提示邮件)

验证码*

您可以使用eMule或eMule Mod(Windows)、aMule(Win、Linux、Mac)等软件下载eD2k链接。。
eMule收藏集(.emulecollection)文件是您选中的所有链接的列表文件。eMule可以直接下载它们。
按住SHIFT键选择可以选中多个选择框。
可用文件名和大小选择器来选择文件。
文件名选择器帮您根据文件名称或后缀来选择文件。不分大小写。
符号使用:
和:空格( )、+
不包含:-
或:|
转义:一对英文引号("");
匹配开头:^
匹配结尾:$
例如:
选中所有名称中包含有“eMule”或“0.49c”字眼,但不包含有“exe”字眼的:emule|0.49c -exe
选中所有名称的开头是“eMule”,结尾是“0.49c”的:^emule 0.49c$
选中所有名称中带有“eMule 0.49c”的(必须是“eMule 0.49c”,中间没有别的字符,不能是“eMule fake 0.49c”),需要转义:"emule 0.49c"
大小选择器帮您根据文件大小选择文件。