当前位置: 首页 >> 欧美电影 >> 致命诱惑[中文字幕].Fatal.Attraction.1987.1080p.BluRay.DD5.1.x265-10bit 11.20GB >> 正文

致命诱惑[中文字幕].Fatal.Attraction.1987.1080p.BluRay.DD5.1.x265-10bit 11.20GB

2021年09月04日 09:59:46     电影发布:来源于网络     电影分类:欧美电影     评论(0)    

致命诱惑[中文字幕].Fatal.Attraction.1987.1080p.BluRay.DD5.1.x265 10bit 11.20GB 惊悚片 剧情片 欧美电影  第1张

◎译 名 致命诱惑 / 孽缘(港) / 致命的吸引力(台 ) / 致命的诱惑 / Affairs of the Heart

◎片 名 Fatal Attraction

◎年 代 1987

◎产 地 美国

◎类 别 剧情 / 惊悚

◎语 言 英语

◎上映日期 1987-09-18

◎IMDb链接 https://www.imdb.com/title/tt0093010/

◎豆瓣评分 7.0/10 (4937人评价)

◎豆瓣链接 https://movie.douban.com/subject/1294587/

◎片 长 119 分钟

◎导 演 阿德里安·莱恩 Adrian Lyne (id:1032182)

◎编 剧 詹姆斯·迪尔登 James Dearden (id:1050697)

◎演 员 迈克尔·道格拉斯 Michael Douglas (id:1053620)

格伦·克洛斯 Glenn Close (id:1031875)

安妮·阿彻 Anne Archer (id:1049622)

艾伦.汉密尔顿.尼森 Ellen Hamilton Latzen (id:1112258)

简·科拉克斯基 Jane Krakowski (id:1027199)

詹姆斯·埃克豪斯 James Eckhouse (id:1004945)

安娜·莱文 Anna Levine (id:1049843)

乔纳森·布兰戴斯 Jonathan Brandis (id:1002726)

迈克·努斯鲍姆 Mike Nussbaum (id:1130923)

弗雷德·格温 Fred Gwynne (id:1055387)

罗伊丝·史密斯 Lois Smith (id:1151084)

艾伦·弗雷 Ellen Foley (id:1087837)

斯图尔特·潘金 Stuart Pankin (id:1130020)

莫里斯·雅尔 Maurice Jarre (id:1050191)

霍华德·阿瑟顿 Howard Atherton (id:1277534)

彼得·E·伯格 Peter E. Berger (id:1278433)

里萨·布雷蒙·加西亚 Risa Bramon Garcia (id:1284503)

老乔治·德蒂塔 George DeTitta Sr. (id:1282304)

艾伦·米罗伊尼克 Ellen Mirojnick (id:1010099)

林戴尔·奎尤 Lyndell Quiyou (id:1295089)

道格·德雷克斯勒 Doug Drexler (id:1282718)

大卫·R·艾里斯 David R. Ellis (id:1050082)

Jane Paul Jane Paul (id:1294110)

◎标 签 美国 / 惊悚 / 悬疑 / 美国电影 / 情色 / 剧情 / 1987 / 阿德里安·莱恩

◎简 介

丹(迈克尔·道格拉斯 Michael Douglas 饰)拥有着人人羡慕的幸福家庭,他和妻子贝丝(安妮·阿彻 Anne Archer 饰)之间的感情稳固而又长久,女儿艾伦(Ellen Hamilton Latzen 饰)更是机灵可爱。一次偶然中,不只是鬼迷心窍还是怎地, 丹竟然和一个名叫艾利克斯(格伦·克洛斯 Glenn Close 饰)的女人有了一段露水情缘,回家后面对妻儿,丹的内心充满了愧疚,他暗暗发誓,绝不让背叛再度发生。

可惜艾利克斯并不同意但的看法,表面上,她是一个成熟稳重的知性派,可骨子里,艾利克斯却拥有着超越常人的偏执和固执,为了满足自己的私欲,她不断的骚扰着丹及其家庭,很快,这种骚扰变升级成为了犯罪。面对来势汹汹的艾利克斯,丹会选择怎样的对策来保护他的家庭呢?

◎获奖情况 (共7项)

第60届奥斯卡金像奖 (1988)

最佳影片(提名)

最佳导演(提名)

└──阿德里安·莱恩 (id:1032182)

最佳女主角(提名)

└──格伦·克洛斯 (id:1031875)

最佳女配角(提名)

└──安妮·阿彻 (id:1049622)

最佳改编剧本(提名)

└──詹姆斯·迪尔登 (id:1050697)

最佳剪辑(提名)

第12届日本电影学院奖 (1989)

最佳外语片(提名)

  1. ##### MediaInfo ######

  2. General

  3. Unique ID : 331934718742045211925922237038205735229 (0xF9B84D2B37D5EA0C20D4A066C42A113D)

  4. Complete name : Fatal.Attraction.1987.1080p.BluRay.DD5.1.x265-10bit-10007@BBQDDQ.COM.mkv

  5. Format : Matroska

  6. Format version : Version 4

  7. File size : 11.2 GiB

  8. Duration : 1 h 59 min

  9. Overall bit rate : 13.4 Mb/s

  10. Movie name : Fatal Attraction 1987 1080p BluRay DD5.1 x265-10bit-10007@BBQDDQ.COM

  11. Encoded date : UTC 2021-09-03 07:34:42

  12. Writing application : mkvmerge v38.0.0 ('The Silent Type') 64-bit

  13. Writing library : libebml v1.3.9 + libmatroska v1.5.2


  14. Video

  15. ID : 1

  16. Format : HEVC

  17. Format/Info : High Efficiency Video Coding

  18. Format profile : Main 10@L5.1@High

  19. Codec ID : V_MPEGH/ISO/HEVC

  20. Duration : 1 h 59 min

  21. Bit rate : 12.8 Mb/s

  22. Width : 1 920 pixels

  23. Height : 1 080 pixels

  24. Display aspect ratio : 16:9

  25. Frame rate mode : Constant

  26. Frame rate : 23.976 (24000/1001/53354) FPS

  27. Color space : YUV

  28. Chroma subsampling : 4:2:0

  29. Bit depth : 10 bits

  30. Bits/(Pixel*Frame) : 0.257

  31. Stream size : 10.6 GiB (95%)

  32. Title : @HDSky

  33. Writing library : x265 - H.265/HEVC codec

  34. Default : Yes

  35. Forced : No


  36. Audio

  37. ID : 2

  38. Format : AC-3

  39. Format/Info : Audio Coding 3

  40. Commercial name : Dolby Digital

  41. Codec ID : A_AC3

  42. Duration : 1 h 59 min

  43. Bit rate mode : Constant

  44. Bit rate : 640 kb/s

  45. Channel(s) : 6 channels

  46. Channel layout : L R C LFE Ls Rs

  47. Sampling rate : 48.0 kHz

  48. Frame rate : 31.250 FPS (1536 SPF)

  49. Compression mode : Lossy

  50. Stream size : 547 MiB (5%)

  51. Title : English

  52. Language : English

  53. Service kind : Complete Main

  54. Default : Yes

  55. Forced : No


  56. Text #1

  57. ID : 3

  58. Format : PGS

  59. Muxing mode : zlib

  60. Codec ID : S_HDMV/PGS

  61. Codec ID/Info : Picture based subtitle format used on BDs/HD-DVDs

  62. Duration : 1 h 51 min

  63. Bit rate : 19.5 kb/s

  64. Count of elements : 2182

  65. Stream size : 15.6 MiB (0%)

  66. Title : CHS

  67. Language : Chinese

  68. Default : Yes

  69. Forced : No


  70. Text #2

  71. ID : 4

  72. Format : PGS

  73. Muxing mode : zlib

  74. Codec ID : S_HDMV/PGS

  75. Codec ID/Info : Picture based subtitle format used on BDs/HD-DVDs

  76. Duration : 1 h 51 min

  77. Bit rate : 19.9 kb/s

  78. Count of elements : 2182

  79. Stream size : 15.9 MiB (0%)

  80. Title : CHS

  81. Language : Chinese

  82. Default : No

  83. Forced : No


  84. Menu

  85. 00:00:00.000 : en:Chapter 01

  86. 00:01:59.661 : en:Chapter 02

  87. 00:12:34.128 : en:Chapter 03

  88. 00:16:53.471 : en:Chapter 04

  89. 00:21:46.639 : en:Chapter 05

  90. 00:25:59.600 : en:Chapter 06

  91. 00:40:25.131 : en:Chapter 07

  92. 00:55:06.970 : en:Chapter 08

  93. 00:59:47.334 : en:Chapter 09

  94. 01:13:42.585 : en:Chapter 10

  95. 01:16:10.399 : en:Chapter 11

  96. 01:25:48.143 : en:Chapter 12

  97. 01:28:31.056 : en:Chapter 13

  98. 01:35:27.639 : en:Chapter 14

  99. 01:40:53.422 : en:Chapter 15

  100. 01:46:04.316 : en:Chapter 16

  101. 01:55:20.413 : en:Chapter 17



文件下载


除非特别注明,本文『致命诱惑[中文字幕].Fatal.Attraction.1987.1080p.BluRay.DD5.1.x265-10bit 11.20GB』来源于互联网机器人自动抓取,非本站原创。 浮游电影网不对本文拥有版权,如有侵犯,请联系邮箱:fuyouu#yandex.com[#换成@]投诉。我们会在15个工作日内删除。 但烦请转载时请标明出处:“本文转载于『浮游电影网』,原文地址:https://www.fuyouu.com/14178.html

评论吧骚年!

发表你的见解   

昵称*

E-mail*(建议输入,以便收到博主回复的提示邮件)

验证码*

您可以使用eMule或eMule Mod(Windows)、aMule(Win、Linux、Mac)等软件下载eD2k链接。。
eMule收藏集(.emulecollection)文件是您选中的所有链接的列表文件。eMule可以直接下载它们。
按住SHIFT键选择可以选中多个选择框。
可用文件名和大小选择器来选择文件。
文件名选择器帮您根据文件名称或后缀来选择文件。不分大小写。
符号使用:
和:空格( )、+
不包含:-
或:|
转义:一对英文引号("");
匹配开头:^
匹配结尾:$
例如:
选中所有名称中包含有“eMule”或“0.49c”字眼,但不包含有“exe”字眼的:emule|0.49c -exe
选中所有名称的开头是“eMule”,结尾是“0.49c”的:^emule 0.49c$
选中所有名称中带有“eMule 0.49c”的(必须是“eMule 0.49c”,中间没有别的字符,不能是“eMule fake 0.49c”),需要转义:"emule 0.49c"
大小选择器帮您根据文件大小选择文件。